Other

The Code[2009]DvDRip[Eng] Uvall

  • Download 5x Faster
  • Download torrent
  • Direct Download
  • Rate this torrent +  |  -
The Code[2009]DvDRip[Eng] Uvall

Free and Direct Download with Usenet 300GB+ free


Torrent info

Name:The Code[2009]DvDRip[Eng] Uvall

Total Size: 1.18 GB

Magnet: Magnet Link

Seeds: 1

Leechers: 0

Stream: Watch Online @ Movie4u

Last Updated: 2016-01-29 12:18:05 (Update Now)

Torrent added: 2009-09-21 20:40:59




Torrent Files List


The Code.nfo (Size: 1.18 GB) (Files: 6)

 The Code.nfo

2.56 KB

 tracked_by_h33t_com.txt

0.02 KB

 Cover.jpg

50.15 KB

 The Code[2009]DvDRip[Eng]-Uvall.idx

106.92 KB

 The Code[2009]DvDRip[Eng]-Uvall.sub

7.89 MB

 The Code[2009]DvDRip[Eng]-Uvall.avi

1.17 GB
 

tracker

leech seeds
 

Torrent description

~~~~~~~~~~~~~~~~~~~~~~~~~~~~~~~~~~~~~~~~~~~~~~~~~~~~~~~~~~~~~~~~~~~
Title: The Code[2009]
~~~~~~~~~~~~~~~~~~~~~~~~~~~~~~~~~~~~~~~~~~~~~~~~~~~~~~~~~~~~~~~~~~~
~~~~~~~~~~~~~~~~~~~~~~~~~~~~~~~~~~~~~~~~~~~~~~~~~~~~~~~~~~~~~~~~~~~
Release Notes

Genre: Crime

Rated: R for sexuality, language and some nudity.

Movie Information: http://www.imdb.com/title/tt1112782/

Plot: A veteran thief recruits a younger crook to help him pull off
one final job in order to repay his debt to the Russian mob.

Format : AVI
Format/Info : Audio Video Interleave
File size : 1.17 GiB
Duration : 1h 43mn
Overall bit rate : 1 617 Kbps
Movie name : Code[2009]DvDRip[Eng]-Uvall
Writing application : Lavf52.33.0

Video
Format : MPEG-4 Visual
Format profile : [email protected]
Format settings, BVOP : No
Format settings, QPel : No
Format settings, GMC : No warppoints
Format settings, Matrix : Default (H.263)
Codec ID : XVID
Codec ID/Hint : XviD
Duration : 1h 43mn
Bit rate : 1 285 Kbps
Width : 704 pixels
Height : 304 pixels
Display aspect ratio : 2.35:1
Frame rate : 29.970 fps
Resolution : 24 bits
Colorimetry : 4:2:0
Scan type : Progressive
Bits/(Pixel*Frame) : 0.200
Stream size : 953 MiB (79%)
Writing library : XviD 1.2.1 (UTC 2008-12-04)

Audio
Format : AC-3
Format/Info : Audio Coding 3
Codec ID : 2000
Duration : 1h 43mn
Bit rate mode : Constant
Bit rate : 320 Kbps
Channel(s) : 6 channels
Channel positions : Front: L C R, Surround: L R, LFE
Sampling rate : 48.0 KHz
Stream size : 237 MiB (20%)
Alignment : Aligned on interleaves
Interleave, duration : 32 ms (0.96 video frame)
~~~~~~~~~~~~~~~~~~~~~~~~~~~~~~~~~~~~~~~~~~~~~~~~~~~~~~~~~~~~~~~~~~~
~~~~~~~~~~~~~~~~~~~~~~~~~~~~~~~~~~~~~~~~~~~~~~~~~~~~~~~~~~~~~~~~~~~
Posted By: Uvall
~~~~~~~~~~~~~~~~~~~~~~~~~~~~~~~~~~~~~~~~~~~~~~~~~~~~~~~~~~~~~~~~~~~

related torrents

Torrent name

health leech seeds Size
 

comments (0)

Main Menu