Comedy

Adventureland[2009]DvDRip[Eng] Uvall

  • Download 5x Faster
  • Download torrent
  • Direct Download
  • Rate this torrent +  |  -
Adventureland[2009]DvDRip[Eng] Uvall

Anonymous and Direct Download 300GB+ free


Torrent info

Name:Adventureland[2009]DvDRip[Eng] Uvall

Total Size: 1.28 GB

Magnet: Magnet Link

Seeds: 28

Leechers: 8

Stream: Watch Online @ Movie4u

Last Updated: 2010-12-28 11:05:36 (Update Now)

Torrent added: 2009-09-21 20:40:51




Torrent Files List


tracked_by_h33t_com.txt (Size: 1.28 GB) (Files: 6)

 tracked_by_h33t_com.txt

0.02 KB

 Adventureland.nfo

2.71 KB

 Adventureland[2009]DvDRip[Eng]-Uvall.idx

972.08 KB

 Cover.jpg

83.67 KB

 Adventureland[2009]DvDRip[Eng]-Uvall.sub

106.98 MB

 Adventureland[2009]DvDRip[Eng]-Uvall.avi

1.17 GB
 

Announce URL: http://www.h33t.com:3310/announce

Torrent description

~~~~~~~~~~~~~~~~~~~~~~~~~~~~~~~~~~~~~~~~~~~~~~~~~~~~~~~~~~~~~~~~~~~
Title: Adventureland[2009]
~~~~~~~~~~~~~~~~~~~~~~~~~~~~~~~~~~~~~~~~~~~~~~~~~~~~~~~~~~~~~~~~~~~
~~~~~~~~~~~~~~~~~~~~~~~~~~~~~~~~~~~~~~~~~~~~~~~~~~~~~~~~~~~~~~~~~~~
Release Notes

Genre: Comedy | Drama | Romance

Rated: R for language, drug use and sexual references.

Movie Information: http://www.imdb.com/title/tt1091722/

Plot: A comedy set in the summer of 1987 and centered around a
recent college grad (Eisenberg) who takes a nowhere job at
his local amusement park, only to find it's the perfect
course to get him prepared for the real world.

Format : AVI
Format/Info : Audio Video Interleave
File size : 1.17 GiB
Duration : 1h 46mn
Overall bit rate : 1 568 Kbps
Movie name : Adventureland[2009]DvDRip[Eng]-Uvall
Writing application : Lavf52.33.0

Video
Format : MPEG-4 Visual
Format profile : [email protected]
Format settings, BVOP : No
Format settings, QPel : No
Format settings, GMC : No warppoints
Format settings, Matrix : Default (H.263)
Codec ID : XVID
Codec ID/Hint : XviD
Duration : 1h 46mn
Bit rate : 1 173 Kbps
Width : 704 pixels
Height : 388 pixels
Display aspect ratio : 16:9
Frame rate : 23.976 fps
Resolution : 24 bits
Colorimetry : 4:2:0
Scan type : Progressive
Bits/(Pixel*Frame) : 0.179
Stream size : 897 MiB (75%)
Writing library : XviD 1.2.1 (UTC 2008-12-04)

Audio
Format : AC-3
Format/Info : Audio Coding 3
Codec ID : 2000
Duration : 1h 46mn
Bit rate mode : Constant
Bit rate : 384 Kbps
Channel(s) : 6 channels
Channel positions : Front: L C R, Surround: L R, LFE
Sampling rate : 48.0 KHz
Stream size : 294 MiB (24%)
Alignment : Aligned on interleaves
Interleave, duration : 32 ms (0.77 video frame)
~~~~~~~~~~~~~~~~~~~~~~~~~~~~~~~~~~~~~~~~~~~~~~~~~~~~~~~~~~~~~~~~~~~
~~~~~~~~~~~~~~~~~~~~~~~~~~~~~~~~~~~~~~~~~~~~~~~~~~~~~~~~~~~~~~~~~~~
Posted By: Uvall
~~~~~~~~~~~~~~~~~~~~~~~~~~~~~~~~~~~~~~~~~~~~~~~~~~~~~~~~~~~~~~~~~~~

related torrents

Torrent name

health leech seeds Size
 


comments (0)

Main Menu