Action

Triple X 2 State Of The Union [2005] 1280x528 HD Mp4 H264 AAC 5 1 ch 3Li

  • Download 5x Faster
  • Download torrent
  • Direct Download
  • Rate this torrent +  |  -
Triple X 2 State Of The Union [2005] 1280x528 HD Mp4 H264 AAC 5 1 ch 3Li

Free and Direct Download with Usenet.nl 300GB+ free


Torrent info

Name:Triple X 2 State Of The Union [2005] 1280x528 HD Mp4 H264 AAC 5 1 ch 3Li

Total Size: 1.44 GB

Magnet: Magnet Link

Seeds: 0

Leechers: 0

Stream: Watch Online @ Movie4u

Last Updated: 2015-09-02 15:31:43 (Update Now)

Torrent added: 2009-09-21 20:37:26





Torrent Files List


snapshot20090920231329.jpg (Size: 1.44 GB) (Files: 16)

 snapshot20090920231329.jpg

66.09 KB

 snapshot20090920231345.jpg

56.69 KB

 snapshot20090920224558.jpg

66.35 KB

 snapshot20090920231523.jpg

79.42 KB

 snapshot20090920231623.jpg

76.91 KB

 snapshot20090920231105.jpg

82.70 KB

 snapshot20090920224706.jpg

90.25 KB

 snapshot20090920231420.jpg

89.66 KB

 snapshot20090920231559.jpg

100.31 KB

 snapshot20090921051634.jpg

94.79 KB

 Triple X 2 - State Of The Union.mp4

1.44 GB

 snapshot20090920231921.jpg

101.53 KB

 Subtitle

  tracked_by_h33t_com.txt

0.02 KB

  3Li info movie.txt

5.02 KB

  Read Me if U Want.txt

0.94 KB

  Triple X 2 - State Of The Union.Eng.srt

79.62 KB
 

tracker

leech seeds
 

Torrent description

General
Complete name : Triple X 2 - State Of The Union.mp4
Format : MPEG-4
Format profile : Base Media
Codec ID : isom
File size : 1.44 GiB
Duration : 1h 40mn
Overall bit rate : 2 035 Kbps
Encoded date : UTC 2009-09-19 19:50:42
Tagged date : UTC 2009-09-19 19:50:42

Video
ID : 1
Format : AVC
Format/Info : Advanced Video Codec
Format profile : [email protected]
Format settings, CABAC : Yes
Format settings, ReFrames : 3 frames
Codec ID : avc1
Codec ID/Info : Advanced Video Coding
Duration : 1h 40mn
Bit rate mode : Variable
Bit rate : 1 847 Kbps
Maximum bit rate : 6 897 Kbps
Width : 1 280 pixels
Height : 528 pixels
Display aspect ratio : 2.40:1
Frame rate mode : Constant
Frame rate : 23.976 fps
Resolution : 24 bits
Colorimetry : 4:2:0
Scan type : Progressive
Bits/(Pixel*Frame) : 0.114
Stream size : 1.30 GiB (91%)
Title : xXx 2 - State Of The Union By 3Li
Writing library : x264 core 68

Audio
ID : 2
Format : AAC
Format/Info : Advanced Audio Codec
Format version : Version 4
Format profile : LC
Format settings, SBR : No
Codec ID : 40
Duration : 1h 40mn
Bit rate mode : Variable
Bit rate : 185 Kbps
Maximum bit rate : 237 Kbps
Channel(s) : 6 channels
Channel positions : Front: L C R, Rear: L R, LFE
Sampling rate : 48.0 KHz
Resolution : 16 bits
Stream size : 133 MiB (9%)
Title : xXx 2 - State Of The Union
Language : English
Encoded date : UTC 2009-09-19 19:51:38
Tagged date : UTC 2009-09-19 19:51:44

related torrents

Torrent name

health leech seeds Size
 

comments (0)

Main Menu