Sci-Fi

Star Trek 2009 DVD RNM mp4

  • Download 5x Faster
  • Download torrent
  • Direct Download
  • Rate this torrent +  |  -
Star Trek 2009 DVD RNM mp4

Free and Direct Download with Usenet 300GB+ free


Torrent info

Name:Star Trek 2009 DVD RNM mp4

Total Size: 1.09 GB

Magnet: Magnet Link

Seeds: 0

Leechers: 0

Stream: Watch Online @ Movie4u

Last Updated: 2015-09-30 11:12:24 (Update Now)

Torrent added: 2009-09-21 17:11:45




Torrent Files List


Star Trek 2009 DVD RNM.mp4 (Size: 1.09 GB) (Files: 1)

 Star Trek 2009 DVD RNM.mp4

1.09 GB
 

tracker

leech seeds
 

Torrent description

Format : MPEG-4
Format profile : Base Media
Codec ID : isom
File size : 1.09 GiB
Duration : 2h 6mn
Overall bit rate : 1 232 Kbps
Encoded date : UTC 2009-09-21 18:38:48
Tagged date : UTC 2009-09-21 18:38:48

Video
ID : 1
Format : MPEG-4 Visual
Format profile : [email protected]
Format settings, BVOP : No
Format settings, QPel : No
Format settings, GMC : No warppoints
Format settings, Matrix : Default (H.263)
Codec ID : 20
Duration : 2h 6mn
Bit rate mode : Variable
Bit rate : 1 099 Kbps
Width : 640 pixels
Height : 320 pixels
Display aspect ratio : 16/9
Frame rate mode : Constant
Frame rate : 30.000 fps
Resolution : 24 bits
Colorimetry : 4:2:0
Scan type : Progressive
Bits/(Pixel*Frame) : 0.179
Stream size : 997 MiB (89%)
Writing library : Lavc51.40.4
Encoded date : UTC 2009-09-21 18:38:48
Tagged date : UTC 2009-09-21 18:38:48

Audio
ID : 2
Format : AAC
Format/Info : Advanced Audio Codec
Format version : Version 4
Format profile : LC
Format settings, SBR : No
Codec ID : 40
Duration : 2h 6mn
Bit rate mode : Variable
Bit rate : 128 Kbps
Channel(s) : 2 channels
Channel positions : L R
Sampling rate : 48.0 KHz
Resolution : 16 bits
Stream size : 116 MiB (10%)
Encoded date : UTC 2009-09-21 18:38:48
Tagged date : UTC 2009-09-21 18:38:48

related torrents

Torrent name

health leech seeds Size

Star Trek [2009] DvD rip

0 0 719.84 MB 0
 

comments (0)

Main Menu