Survivor

Survivor Philippines Palau 26 tvrip (TAGALOG) [tukmol101]

  • Download 5x Faster
  • Download torrent
  • Direct Download
  • Rate this torrent +  |  -
Survivor Philippines Palau 26 tvrip (TAGALOG) [tukmol101]

Anonymous and Free Direct Download 300GB+


Torrent info

Name:Survivor Philippines Palau 26 tvrip (TAGALOG) [tukmol101]

Total Size: 226.93 MB

Magnet: Magnet Link

Seeds: 0

Leechers: 1

Stream: Watch Online @ Movie4u

Last Updated: 2016-11-09 03:02:26 (Update Now)

Torrent added: 2009-09-21 16:57:19



VPN For Torrents

Torrent Files List


tracked_by_h33t_com.txt (Size: 226.93 MB) (Files: 4)

 tracked_by_h33t_com.txt

0.02 KB

 Survivor Philippines Palau sample.avi

7.98 MB

 Read Me.nfo

0.58 KB

 Survivor Philippines Palau 26.avi

218.95 MB
 

tracker

leech seeds
 

Torrent description

WITH SAMPLE
General
Complete name : Survivor Philippines Palau 26.avi
Format : AVI
Format/Info : Audio Video Interleave
File size : 219 MiB
Duration : 21mn 44s
Overall bit rate : 1 408 Kbps
Writing application : VirtualDubMod 1.5.4.1 (build 2178/release)
Writing library : VirtualDub build 32593/release

Video
ID : 0
Format : MPEG-4 Visual
Format profile : [email protected]
Format settings, BVOP : Yes
Format settings, QPel : No
Format settings, GMC : No warppoints
Format settings, Matrix : Default (H.263)
Muxing mode : Packed bitstream
Codec ID : XVID
Codec ID/Hint : XviD
Duration : 21mn 44s
Bit rate : 1 290 Kbps
Width : 592 pixels
Height : 448 pixels
Display aspect ratio : 4:3
Frame rate : 29.970 fps
Resolution : 24 bits
Colorimetry : 4:2:0
Scan type : Progressive
Bits/(Pixel*Frame) : 0.162
Stream size : 201 MiB (92%)
Writing library : XviD 1.2.1 (UTC 2008-12-04)

Audio
ID : 1
Format : MPEG Audio
Format version : Version 1
Format profile : Layer 3
Codec ID : 55
Codec ID/Hint : MP3
Duration : 21mn 44s
Bit rate mode : Variable
Bit rate : 104 Kbps
Channel(s) : 2 channels
Sampling rate : 48.0 KHz
Resolution : 16 bits
Stream size : 16.1 MiB (7%)
Alignment : Aligned on interleaves
Interleave, duration : 24 ms (0.72 video frame)
Interleave, preload duration : 521 ms

related torrents

Torrent name

health leech seeds Size
 


comments (0)

Main Menu