Sci-Fi

Trancers 6 [2002]DVDRip XviD EPiSODE

  • Download 5x Faster
  • Download torrent
  • Direct Download
  • Rate this torrent +  |  -
Trancers 6 [2002]DVDRip XviD EPiSODE

Anonymous and Free Direct Download 300GB+


Torrent info

Name:Trancers 6 [2002]DVDRip XviD EPiSODE

Total Size: 698.53 MB

Magnet: Magnet Link

Seeds: 0

Leechers: 0

Stream: Watch Online @ Movie4u

Last Updated: 0000-00-00 00:00:00 (Update Now)

Torrent added: 2009-09-21 16:56:19



VPN For Torrents

Torrent Files List


Trancers 6.jpg (Size: 698.53 MB) (Files: 5)

 Trancers 6.jpg

33.45 KB

 Seedboxes!!!.txt

0.22 KB

 esd-tnc6.nfo

15.58 KB

 INVITATION!!!.txt

8.74 KB

 esd-tnc6.avi

698.47 MB
 

Announce URL:

Torrent description

Trancers 6 [2002]DVDRip XviD-EPiSODE


General
Complete name : Trancers 6 [2002]DVDRip XviD-EPiSODE.avi
Format : AVI
Format/Info : Audio Video Interleave
File size : 698 MiB
Duration : 1h 20mn
Overall bit rate : 1 220 Kbps
Writing application : Nandub v1.0rc2
Writing library : Nandub build 1852/release

Video
Format : MPEG-4 Visual
Format profile : Streaming [email protected]
Format settings, BVOP : Yes
Format settings, QPel : No
Format settings, GMC : No warppoints
Format settings, Matrix : Default
Muxing mode : Packed bitstream
Codec ID : XVID
Codec ID/Hint : XviD
Duration : 1h 20mn
Bit rate : 1 076 Kbps
Width : 576 pixels
Height : 432 pixels
Display aspect ratio : 4/3
Frame rate : 23.976 fps
Resolution : 24 bits
Colorimetry : 4:2:0
Scan type : Progressive
Bits/(Pixel*Frame) : 0.180
Stream size : 616 MiB (88%)
Writing library : XviD 1.2.1 (UTC 2008-12-04)

Audio
Format : MPEG Audio
Format version : Version 1
Format profile : Layer 3
Codec ID : 55
Codec ID/Hint : MP3
Duration : 1h 20mn
Bit rate mode : Variable
Bit rate : 131 Kbps
Minimum bit rate : 138 Kbps
Channel(s) : 2 channels
Sampling rate : 48.0 KHz
Resolution : 16 bits
Stream size : 74.9 MiB (11%)
Alignment : Aligned on interleaves
Interleave, duration : 24 ms (0.58 video frame)
Interleave, preload duration : 135 ms
Writing library : LAME3.98r
Encoding settings : ABR




Zette Sullivan ... Josephine Forrest / Jo Deth

Jennifer Capo ... Shauna Wilder

Robert Donavan ... Dr. Paul Malvern

Timothy Prindle ... Mark

Jere Jon ... Sam

Jennifer Cantrell ... Hooker Jennings





In a return to the groundbreaking original film's premise, Jack Deth is back - traveling back in time and into the body of his own daughter, Josephine, on a mission to save her life and save the world from the most lethal Trancers yet. Jack/Jo must adapt and survive being a girl while avoiding many assassination attempts by more powerful and dangerous zombie-like Trancers than he's ever faced before in the series. With his new friends, his new enemies and a new female hero are set to take Trancers into the next century for both the planet and Full Moon Pictures.

related torrents

Torrent name

health leech seeds Size
 


comments (0)

Main Menu