Drama

Liverpool [2008] LIMITED DVDRip[+Eng Subs] XviD AEN

  • Download 5x Faster
  • Download torrent
  • Direct Download
  • Rate this torrent +  |  -
Liverpool [2008] LIMITED DVDRip[+Eng Subs] XviD AEN

Anonymous and free Direct Download 300GB+


Torrent info

Name:Liverpool [2008] LIMITED DVDRip[+Eng Subs] XviD AEN

Total Size: 707.74 MB

Magnet: Magnet Link

Seeds: 3

Leechers: 1

Stream: Watch Online @ Movie4u

Last Updated: 2011-05-23 13:20:21 (Update Now)

Torrent added: 2009-09-21 11:54:12



SpyOFF VPN

Torrent Files List


Liverpool.jpg (Size: 707.74 MB) (Files: 8)

 Liverpool.jpg

33.10 KB

 Seedboxes!!!.txt

0.22 KB

 INVITATION!!!.txt

8.74 KB

 liverpool.2008.limited.dvdrip.xvid-aen.avi

699.65 MB

 aen-liverpool-sample.avi

7.85 MB

 aen-liverpool.nfo

22.67 KB

 aen-liverpool-subs

  liverpool.2008.limited.dvdrip.xvid-aen.rar

164.91 KB

  liverpool.2008.limited.dvdrip.xvid-aen.idx

20.47 KB
 

Announce URL: http://genesis.1337x.org:1337/announce

Torrent description

Liverpool [2008] LIMITED DVDRip[+Eng Subs] XviD-AEN




General
Complete name : Liverpool [2008] LIMITED DVDRip[+Eng.Subs] XviD-AEN.avi
Format : AVI
Format/Info : Audio Video Interleave
File size : 700 MiB
Duration : 1h 21mn
Overall bit rate : 1 194 Kbps
Writing application : Nandub v1.0rc2
Writing library : Nandub build 1852/release

Video
Format : MPEG-4 Visual
Format profile : Streaming [email protected]
Format settings, BVOP : Yes
Format settings, QPel : No
Format settings, GMC : No warppoints
Format settings, Matrix : Default
Codec ID : XVID
Codec ID/Hint : XviD
Duration : 1h 21mn
Bit rate : 1 045 Kbps
Width : 608 pixels
Height : 336 pixels
Display aspect ratio : 16/9
Frame rate : 25.000 fps
Resolution : 24 bits
Colorimetry : 4:2:0
Scan type : Progressive
Bits/(Pixel*Frame) : 0.205
Stream size : 612 MiB (87%)
Writing library : XviD 1.2.1 (UTC 2008-12-04)

Audio
Format : MPEG Audio
Format version : Version 1
Format profile : Layer 3
Codec ID : 55
Codec ID/Hint : MP3
Duration : 1h 21mn
Bit rate mode : Variable
Bit rate : 137 Kbps
Minimum bit rate : 138 Kbps
Channel(s) : 2 channels
Sampling rate : 48.0 KHz
Resolution : 16 bits
Stream size : 80.0 MiB (11%)
Alignment : Aligned on interleaves
Interleave, duration : 24 ms (0.60 video frame)
Interleave, preload duration : 129 ms
Writing library : LAME3.95
Encoding settings : ABR


Nieves Cabrera ... Trujillo
Giselle Irrazabal ... Analía
Juan Fernández ... Farrel



A merchant sailor returns to his home in Tierra del Fuego after spending most of his life at sea.

related torrents

Torrent name

health leech seeds Size
 


comments (0)

Main Menu