WWE - Wrestling

TNA No Surrender 2009 [SatRiP XviD Mp3 ENG][TNTVillage Scambioetico]

  • Download 5x Faster
  • Download torrent
  • Direct Download
  • Rate this torrent +  |  -
TNA No Surrender 2009 [SatRiP XviD Mp3 ENG][TNTVillage Scambioetico]

Free and Direct Download with Usenet 300GB+ free


Torrent info

Name:TNA No Surrender 2009 [SatRiP XviD Mp3 ENG][TNTVillage Scambioetico]

Total Size: 1.36 GB

Magnet: Magnet Link

Seeds: 0

Leechers: 0

Stream: Watch Online @ Movie4u

Last Updated: 2015-09-29 14:32:08 (Update Now)

Torrent added: 2009-09-21 06:49:01




Torrent Files List


TNA.No.Surrender.2009.PPV.DSR.XviD-BigTex.avi (Size: 1.36 GB) (Files: 1)

 TNA.No.Surrender.2009.PPV.DSR.XviD-BigTex.avi

1.36 GB
 

tracker

leech seeds
 

Torrent description

TNA No Surrender 2009 [SatRiP-XviD-Mp3-ENG][TNTVillage.Scambioetico]


General
Complete name : C:\TNA.No.Surrender.2009.PPV.DSR.XviD-BigTex.avi
Format : AVI
Format/Info : Audio Video Interleave
File size : 1.36 GiB
Duration : 2h 52mn
Overall bit rate : 1 132 Kbps
Writing library : VirtualDub build 32559/release

Video
Format : MPEG-4 Visual
Format profile : Streaming [email protected]
Format settings, BVOP : Yes
Format settings, QPel : No
Format settings, GMC : No warppoints
Format settings, Matrix : Default
Muxing mode : Packed bitstream
Codec ID : XVID
Codec ID/Hint : XviD
Duration : 2h 52mn
Bit rate : 992 Kbps
Width : 512 pixels
Height : 384 pixels
Display aspect ratio : 4/3
Frame rate : 29.970 fps
Resolution : 24 bits
Colorimetry : 4:2:0
Scan type : Progressive
Bits/(Pixel*Frame) : 0.168
Stream size : 1.19 GiB (88%)
Writing library : XviD 1.2.1 (UTC 2008-12-04)

Audio
Format : MPEG Audio
Format version : Version 1
Format profile : Layer 3
Codec ID : 55
Codec ID/Hint : MP3
Duration : 2h 52mn
Bit rate mode : Constant
Bit rate : 128 Kbps
Channel(s) : 2 channels
Sampling rate : 48.0 KHz
Resolution : 16 bits
Video delay : 23ms
Stream size : 158 MiB (11%)
Alignment : Split accross interleaves
Interleave, duration : 33 ms (1.00 video frame)
Interleave, preload duration : 500 ms



Card PPV:


Tag team match to crown the first TNA Knockout Tag Team Champions
Taylor Wilde and Sarita vs. The Beautiful People (Velvet Sky and Madison Rayne)

Singles match
Hernandez vs. Eric Young

Singles match for the TNA X Division Championship
Samoa Joe © vs. Daniels

Falls Count Anywhere match
D'Angelo Dinero vs. Suicide

Intergender match for the vacant TNA Women's Knockout Championship
ODB vs. Cody Deaner

$50,000 Bounty Challenge for the TNA Legends Championship; if Nash wins, he will claim the $50,000 bounty from Dr. Stevie, while if Abyss wins he claims the Legends Championship.
Kevin Nash © vs. Abyss

Lethal Lockdown
Beer Money, Inc. (James Storm and Robert Roode) and Team 3D (Brother Devon and Brother Ray) vs. The Main Event Mafia (Booker T and Scott Steiner) and The British Invasion (Brutus Magnus and Doug Williams)

Singles match
Bobby Lashley vs. Rhino

Five-Way match for the TNA World Heavyweight Championship
A.J. Styles vs. Kurt Angle ©, Matt Morgan, Sting and Hernandez

related torrents

Torrent name

health leech seeds Size
 

comments (0)

Main Menu