Sci-Fi

Hollow Man [2000] 1280x688 HD Mp4 H264 AAC 5 1 ch 3Li

  • Download 5x Faster
  • Download torrent
  • Direct Download
  • Rate this torrent +  |  -
Hollow Man [2000] 1280x688 HD Mp4 H264 AAC 5 1 ch 3Li

Free and Direct Download with Usenet 300GB+ free


Torrent info

Name:Hollow Man [2000] 1280x688 HD Mp4 H264 AAC 5 1 ch 3Li

Total Size: 1.44 GB

Magnet: Magnet Link

Seeds: 0

Leechers: 0

Stream: Watch Online @ Movie4u

Last Updated: 2015-09-07 22:51:02 (Update Now)

Torrent added: 2009-09-21 06:38:44




Torrent Files List


info (Size: 1.44 GB) (Files: 14)

 info

  3Li info movie.txt

4.91 KB

  Read Me if U Want.txt

0.57 KB

  Torrent downloaded from Demonoid.com.txt

0.05 KB

  tracked_by_h33t_com.txt

0.02 KB

 Hollow Man.mp4

1.44 GB

 snapshot20090921112841.jpg

147.28 KB

 snapshot20090921113512.jpg

109.31 KB

 snapshot20090921113541.jpg

109.00 KB

 snapshot20090921112928.jpg

108.76 KB

 snapshot20090921113258.jpg

108.35 KB

 snapshot20090921113729.jpg

99.81 KB

 snapshot20090921112608.jpg

94.12 KB

 snapshot20090921112453.jpg

88.16 KB

 snapshot20090921113111.jpg

82.82 KB
 

tracker

leech seeds
 

Torrent description

General
Complete name : Hollow Man.mp4
Format : MPEG-4
Format profile : Base Media
Codec ID : isom
File size : 1.44 GiB
Duration : 1h 59mn
Overall bit rate : 1 725 Kbps
Encoded date : UTC 2009-09-18 20:45:04
Tagged date : UTC 2009-09-18 20:45:04

Video
ID : 1
Format : AVC
Format/Info : Advanced Video Codec
Format profile : [email protected]
Format settings, CABAC : Yes
Format settings, ReFrames : 3 frames
Codec ID : avc1
Codec ID/Info : Advanced Video Coding
Duration : 1h 59mn
Bit rate mode : Variable
Bit rate : 1 534 Kbps
Maximum bit rate : 11.1 Mbps
Width : 1 280 pixels
Height : 688 pixels
Display aspect ratio : 1.860
Frame rate mode : Constant
Frame rate : 23.976 fps
Resolution : 24 bits
Colorimetry : 4:2:0
Scan type : Progressive
Bits/(Pixel*Frame) : 0.073
Stream size : 1.28 GiB (89%)
Title : Hollow Man By 3Li
Writing library : x264 core 68

Audio
ID : 2
Format : AAC
Format/Info : Advanced Audio Codec
Format version : Version 4
Format profile : LC
Format settings, SBR : No
Codec ID : 40
Duration : 1h 59mn
Bit rate mode : Variable
Bit rate : 188 Kbps
Maximum bit rate : 252 Kbps
Channel(s) : 6 channels
Channel positions : Front: L C R, Rear: L R, LFE
Sampling rate : 48.0 KHz
Resolution : 16 bits
Stream size : 160 MiB (11%)
Title : Hollow Man
Language : English
Encoded date : UTC 2009-09-18 20:45:33
Tagged date : UTC 2009-09-18 20:45:37

related torrents

Torrent name

health leech seeds Size
 

comments (0)

Main Menu