TV - Other

16 CZAS HONORU avi

  • Download 5x Faster
  • Download torrent
  • Direct Download
  • Rate this torrent +  |  -
16 CZAS HONORU avi

Download FREE And Anonymously


Torrent info

Name:16 CZAS HONORU avi

Total Size: 350.17 MB

Magnet: Magnet Link

Seeds: 0

Leechers: 1

Stream: Watch Full Movie @ Movie4u

Last Updated: 2016-03-26 13:41:24 (Update Now)

Torrent added: 2009-09-21 05:37:15



VPN For Torrents

Torrent Files List


16.CZAS HONORU.avi (Size: 350.17 MB) (Files: 1)

 16.CZAS HONORU.avi

350.17 MB
 

tracker

leech seeds
 

Torrent description

General
16.CZAS HONORU.avi S02E03
Format : AVI
Format/Info : Audio Video Interleave
File size : 350 MiB
Duration : 46mn 59s
Overall bit rate : 1 042 Kbps

Video
ID : 0
Format : MPEG-4 Visual
Format profile : [email protected]
Format settings, BVOP : No
Format settings, QPel : No
Format settings, GMC : No warppoints
Format settings, Matrix : Default (H.263)
Codec ID : XVID
Codec ID/Hint : XviD
Duration : 46mn 59s
Bit rate : 839 Kbps
Width : 720 pixels
Height : 576 pixels
Display aspect ratio : 16/9
Frame rate : 25.000 fps
Standard : PAL
Resolution : 24 bits
Colorimetry : 4:2:0
Scan type : Progressive
Bits/(Pixel*Frame) : 0.081
Stream size : 282 MiB (81%)
Writing library : XviD 1.1.2 (UTC 2006-11-01)

Audio
ID : 1
Format : AC-3
Format/Info : Audio Coding 3
Codec ID : 2000
Duration : 46mn 59s
Bit rate mode : Constant
Bit rate : 192 Kbps
Channel(s) : 2 channels
Channel positions : L R
Sampling rate : 48.0 KHz
Stream size : 64.5 MiB (18%)
Alignment : Aligned on interleaves
Interleave, duration : 32 ms (0.80 video frame)
Interleave, preload duration : 32 ms

related torrents

Torrent name

health leech seeds Size

19 CZAS HONORU avi

10 64 350.14 MB 0
 


comments (0)

Main Menu

 

script data-cfasync="false" src="//d2ghscazvn398x.cloudfront.net/?cshgd=690275">