Family

Barbie and the Three Musketeers 2009 DVDRip

  • Download 5x Faster
  • Download torrent
  • Direct Download
  • Rate this torrent +  |  -
Barbie and the Three Musketeers 2009 DVDRip

Anonymous and Direct Download 300GB+ free


Torrent info

Name:Barbie and the Three Musketeers 2009 DVDRip

Total Size: 680.72 MB

Magnet: Magnet Link

Seeds: 0

Leechers: 0

Stream: Watch Online @ Movie4u

Last Updated: 2015-09-20 10:27:30 (Update Now)

Torrent added: 2009-09-21 02:33:22




Torrent Files List


Barbie And The Three Musketeers 2009.avi (Size: 680.72 MB) (Files: 2)

 Barbie And The Three Musketeers 2009.avi

680.44 MB

 poster.png

289.25 KB
 

tracker

leech seeds
 

Torrent description

Barbie and the Three Musketeers   2009   DVDRip preview 0



========== General ==========

Complete name : Barbie And The Three Musketeers 2009.avi
Format : AVI
Format/Info : Audio Video Interleave
File size : 680 MiB
Duration : 1h 17mn
Overall bit rate : 1 226 Kbps


========== Video ==========

Format : MPEG-4 Visual
Format profile : [email protected]
Format settings, Matrix : Default (H.263)
Codec ID : XVID
Duration : 1h 17mn
Bit rate : 1 085 Kbps
Width : 608 pixels
Height : 336 pixels
Display aspect ratio : 16:9
Frame rate : 23.976 fps
Resolution : 24 bits
Colorimetry : 4:2:0
Scan type : Progressive
Bits/(Pixel*Frame) : 0.221
Stream size : 602 MiB (89%)
Writing library : XviD


========== Audio ==========

Format : MPEG Audio
Format version : Version 1
Format profile : Layer 3
Codec ID : 55
Codec ID/Hint : MP3
Duration : 1h 17mn
Bit rate mode : Constant
Bit rate : 128 Kbps
Channel(s) : 2 channels
Sampling rate : 48.0 KHz
Resolution : 16 bits
Stream size : 71.1 MiB (10%)
Alignment : Aligned on interleaves
Interleave, duration : 24 ms (0.58 video frame)
Interleave, preload duration : 509 ms



Release Date : 15 September 2009 (USA)
Genre : Animation | Family
Tagline : All for one and one for all
Imdb Rating : 4.1/10



Plot:
This time, Barbie performs Corrine, a beautiful young lady which lefts her home in Paris, she's decided to achieve her ambition to become a muskeeter. On the way she meets another 3 girls, Vevecca, Alamina and Ren e, They share the same dream, and when they find out a plot to harm Prince Louis,they notice that they must use thir skills to save the kingdom.





Screeshots:

Barbie and the Three Musketeers   2009   DVDRip preview 1

Barbie and the Three Musketeers   2009   DVDRip preview 2

Barbie and the Three Musketeers   2009   DVDRip preview 3


related torrents

Torrent name

health leech seeds Size
 


comments (0)

Main Menu