Horror

Satans Schoolgirls [2004] DVDRip XViD FICO

  • Download 5x Faster
  • Download torrent
  • Direct Download
  • Rate this torrent +  |  -
Satans Schoolgirls [2004] DVDRip XViD FICO

Free and Direct Download with Usenet 300GB+ free


Torrent info

Name:Satans Schoolgirls [2004] DVDRip XViD FICO

Total Size: 714.51 MB

Magnet: Magnet Link

Seeds: 0

Leechers: 7

Stream: Watch Online @ Movie4u

Last Updated: 2010-12-15 03:43:56 (Update Now)

Torrent added: 2009-09-21 01:34:36




Torrent Files List


fico-ssgirls-sample.avi (Size: 714.51 MB) (Files: 6)

 fico-ssgirls-sample.avi

13.62 MB

 fico-ssgirls.avi

700.82 MB

 fico-ssgirls.nfo

9.42 KB

 INVITATION!!!.txt

8.74 KB

 Satan`s Schoolgirls.jpg

50.76 KB

 Seedboxes!!!.txt

0.22 KB
 

Announce URL: http://genesis.1337x.org:1337/announce

Torrent description

Satans Schoolgirls [2004] DVDRip XViD-FICO


General
Complete name : Satans Schoolgirls [2004] DVDRip XViD-FICO.avi
Format : AVI
Format/Info : Audio Video Interleave
File size : 701 MiB
Duration : 1h 1mn
Overall bit rate : 1 590 Kbps
Writing application : Nandub v1.0rc2
Writing library : Nandub build 1852/release

Video
Format : MPEG-4 Visual
Format profile : [email protected]
Format settings, BVOP : Yes
Format settings, QPel : No
Format settings, GMC : No warppoints
Format settings, Matrix : Default
Codec ID : XVID
Codec ID/Hint : XviD
Duration : 1h 1mn
Bit rate : 1 449 Kbps
Width : 640 pixels
Height : 464 pixels
Display aspect ratio : 1.379
Frame rate : 29.970 fps
Resolution : 24 bits
Colorimetry : 4:2:0
Scan type : Progressive
Bits/(Pixel*Frame) : 0.163
Stream size : 638 MiB (91%)
Writing library : XviD 1.0.3 (UTC 2004-12-20)

Audio
Format : MPEG Audio
Format version : Version 1
Format profile : Layer 3
Codec ID : 55
Codec ID/Hint : MP3
Duration : 1h 1mn
Bit rate mode : Variable
Bit rate : 128 Kbps
Minimum bit rate : 128 Kbps
Channel(s) : 2 channels
Sampling rate : 48.0 KHz
Resolution : 16 bits
Stream size : 56.2 MiB (8%)
Alignment : Aligned on interleaves
Interleave, duration : 24 ms (0.72 video frame)
Interleave, preload duration : 138 ms
Writing library : LAME3.97
Encoding settings : VBR (mtrh)


J. Scott Green ... Father Thomas
Suzi Lorraine ... Sister Helen
Kerri Taylor ... Tammy
Jennifer Litsch ... Julian (as Jane Scarlett)
Shannon Moore ... Karen
Brandy D'Vinn ... Lily
Terry Shane ... Father Wells
T.J. Glenn ... Lawnboy





When seemingly well-intentioned Father Thomas signs on for a quiet summer school session at a rustic school for girls in the country, he gets more than he bargained for. Once inside, Father Thomas has his hands full dealing with four seriously troubled young girls each with a taste for lust, and strict Sister Helen - a disciplinarian who serves up punishment with glee. This Catholic School's foundation is solid evil and the walls are covered with blood. When all hell breaks loose, you can be sure that here no one is what they seem!

related torrents

Torrent name

health leech seeds Size
 

comments (0)

Main Menu