TV - Other

41 TERAZ ALBO NIGDY avi

  • Download 5x Faster
  • Download torrent
  • Direct Download
  • Rate this torrent +  |  -
41 TERAZ ALBO NIGDY avi

Free and Direct Download with Usenet.nl 300GB+ free


Torrent info

Name:41 TERAZ ALBO NIGDY avi

Total Size: 350.21 MB

Magnet: Magnet Link

Seeds: 3

Leechers: 1

Stream: Watch Online @ Movie4u

Last Updated: 2010-09-12 09:01:17 (Update Now)

Torrent added: 2009-09-21 01:34:27





Torrent Files List


41.TERAZ ALBO NIGDY.avi (Size: 350.21 MB) (Files: 1)

 41.TERAZ ALBO NIGDY.avi

350.21 MB
 

Announce URL: http://tracker.prq.to/announce

Torrent description

General

41.TERAZ ALBO NIGDY.avi S04E04
Format : AVI
Format/Info : Audio Video Interleave
File size : 350 MiB
Duration : 42mn 32s
Overall bit rate : 1 151 Kbps

Video
ID : 0
Format : AVC
Format/Info : Advanced Video Codec
Format profile : [email protected]
Format settings, CABAC : Yes
Format settings, ReFrames : 2 frames
Codec ID : H264
Duration : 42mn 32s
Bit rate : 948 Kbps
Width : 720 pixels
Height : 576 pixels
Display aspect ratio : 16/9
Frame rate : 25.000 fps
Standard : PAL
Resolution : 24 bits
Colorimetry : 4:2:0
Scan type : Progressive
Bits/(Pixel*Frame) : 0.091
Stream size : 288 MiB (82%)
Writing library : x264 core 65
Encoding settings : cabac

Audio
ID : 1
Format : AC-3
Format/Info : Audio Coding 3
Codec ID : 2000
Duration : 42mn 32s
Bit rate mode : Constant
Bit rate : 192 Kbps
Channel(s) : 2 channels
Channel positions : L R
Sampling rate : 48.0 KHz
Stream size : 58.4 MiB (17%)
Alignment : Aligned on interleaves
Interleave, duration : 32 ms (0.80 video frame)
Interleave, preload duration : 672 ms

related torrents

Torrent name

health leech seeds Size

Teraz albo nigdy s02e08

0 5 349.46 MB 0

37 TERAZ ALBO NIGDY avi

2 6 360.16 MB 0
 

comments (0)

Main Menu