TV - Other

George And Cecil Sun092009 PHILIPPINES tvrip (TAGALOG) [tukmol101]

  • Download 5x Faster
  • Download torrent
  • Direct Download
  • Rate this torrent +  |  -


Torrent info

Name:George And Cecil Sun092009 PHILIPPINES tvrip (TAGALOG) [tukmol101]

Total Size: 258.32 MB

Magnet: Magnet Link

Seeds: 0

Leechers: 1

Stream: Watch Online @ Movie4u

Last Updated: 2016-02-01 06:18:59 (Update Now)

Torrent added: 2009-09-20 22:46:00



VPN For Torrents

Torrent Files List


George And Cecil.avi (Size: 258.32 MB) (Files: 4)

 George And Cecil.avi

253.51 MB

 sample.avi

4.81 MB

 Read Me.nfo

0.58 KB

 tracked_by_h33t_com.txt

0.02 KB
 

tracker

leech seeds
 

Torrent description

with sample

George and Cecil
They are complete opposites, but a perfect match. George and Cecil marks the first on
screen team up of newlyweds Ryan Agoncillo and Judy Ann Santos-Agoncillo. This romantic
comedy series follows the married life of policewoman George and school teacher Cecil.
She does the dirty job, he does the house cleaning. She has a tough core, while he has the soft spot.
Can this unconventional couple make their relationship work? See how George and Cecil overcome the challenges
of marital
life plus the issues of the people around them



General
Complete name : George And Cecil.avi
Format : AVI
Format/Info : Audio Video Interleave
File size : 254 MiB
Duration : 28mn 11s
Overall bit rate : 1 257 Kbps
Writing application : VirtualDubMod 1.5.4.1 (build 2178/release)
Writing library : VirtualDubMod build 2178/release

Video
ID : 0
Format : MPEG-4 Visual
Format profile : [email protected]
Format settings, BVOP : Yes
Format settings, QPel : No
Format settings, GMC : No warppoints
Format settings, Matrix : Default (H.263)
Muxing mode : Packed bitstream
Codec ID : XVID
Codec ID/Hint : XviD
Duration : 28mn 11s
Bit rate : 1 138 Kbps
Width : 592 pixels
Height : 448 pixels
Display aspect ratio : 4:3
Frame rate : 29.970 fps
Resolution : 24 bits
Colorimetry : 4:2:0
Scan type : Progressive
Bits/(Pixel*Frame) : 0.143
Stream size : 230 MiB (91%)
Writing library : XviD 1.2.1 (UTC 2008-12-04)

Audio
ID : 1
Format : MPEG Audio
Format version : Version 1
Format profile : Layer 3
Codec ID : 55
Codec ID/Hint : MP3
Duration : 28mn 11s
Bit rate mode : Variable
Bit rate : 105 Kbps
Nominal bit rate : 128 Kbps
Channel(s) : 2 channels
Sampling rate : 48.0 KHz
Resolution : 16 bits
Stream size : 21.1 MiB (8%)
Alignment : Aligned on interleaves
Interleave, duration : 24 ms (0.72 video frame)
Interleave, preload duration : 531 ms
Writing library : LAME3.98r
Encoding settings : -m j -V 4 -q 2 -lowpass 17 --abr 128

related torrents

Torrent name

health leech seeds Size
 


comments (0)

Main Menu