Horror

MADHOUSE [2004] Horror Subs FIN SWE DvdRip DM37 XviD

  • Download 5x Faster
  • Download torrent
  • Direct Download
  • Rate this torrent +  |  -
MADHOUSE [2004] Horror Subs FIN SWE DvdRip DM37 XviD

Anonymous and Free Direct Download


Torrent info

Name:MADHOUSE [2004] Horror Subs FIN SWE DvdRip DM37 XviD

Total Size: 726.02 MB

Magnet: Magnet Link

Seeds: 25

Leechers: 57

Stream: Watch Online @ Movie4u

Last Updated: 2010-12-28 06:24:27 (Update Now)

Torrent added: 2009-09-20 20:36:16



VPN For Torrents

Torrent Files List


MADHOUSE[2004]DvdRip-DM37.avi (Size: 726.02 MB) (Files: 4)

 MADHOUSE[2004]DvdRip-DM37.avi

725.88 MB

 MADHOUSE[2004]DvdRip-DM37.Finnish.srt

52.45 KB

 MADHOUSE[2004]DvdRip-DM37.Swedish.srt

50.29 KB

 Madhouse Dvd Cover.jpg

46.08 KB
 

Announce URL: http://tracker.openbittorrent.com/announce

Torrent description

SUOMEKSI: Yllättävän hyvä mielisairaala-kauhuleffa. Toimivat Suomitekstit mukana ! Toimii niin PC kuin TV. NAUTI !!
--------------------------------------------------------------------------------
PÅ SVENSKA: En riktigt hyffsad mentalsjukhus-skräckfilm med svenska texter
(allt fungerar perfekt på PC och TV - testat och rippat av DM37) NJUT !!
--------------------------------------------------------------------------------
ENGLISH:
New DvdRip to you from DM37 !! The Best rips are from DM37 - Only DVD Quality

(or as close as possible) is the only goal -> then it gets a release...

("37" comes from his 37 LCD TV - they got to look perfect on that screen):

He used to like FGX Team until he found out that their rips are not Divx-Dvd-

player compatible (= had to delete them all!). He uses the slowest/best 2-pass

vbr encoding settings for maximum quality and rips all subs too (with SubRip).

Great audio too at 128 kbps mp3 vbr Lame + Audio Boost.

He can be trusted, if you want proof, check his uploads here:

thepiratebay.org/user/DigieraMandela/

--------------------------------------------------------------------------------

MADHOUSE (2004) Asylum horror.

I really enjoyed this movie. It is a terrible

mental hospital with some freaks and most insane patients and if that wasn't

eough then there seems to be ghosts there too.

ENJOY !!

SOURCE.......... pal dvd
AUDIO........... english (128 kbps mp3 vbr audio boost)
SUBTITLES....... Fin Swe (external. Can be watched on PC and TV) or watch without
ASPECT RATIO.... 16/9 Full Frame Widescreen

(-> need more info ? Read LOG below).
------------------------------------------------------------------------------

24 out of 32 people found the following comment useful.
Surprisingly Good, 21 February 2005
9/10
Author: Tim from Richmond, VA

I first rented this movie, expecting only the typical cheesy low budget B-movie, but was surprised to discover a good movie that could have played first run in the theaters. Basically, a young psychiatric intern comes to this backwater rundown mental hospital and discovers a chamber of horrors. There is a mysterious kid/ghost running loose in the hospital and a string of murders taking place, as the intern attempts to piece together what is going on. There were several recognizable stars (such as Lance Henrickson) in the movie, most of whom had small parts in favor of the lesser known actors. There was a fair amount of bloodshed in this movie, and a very good turn around in the plot towards the end of the movie that makes all of the previously hard to follow elements crystal clear to the viewer as the identity of the killer is realized.
--------------------------------------------------------------------------------
8 out of 11 people found the following comment useful :-
Great Unknown Horror B-Movie, 5 June 2005
7/10
Author: Claudio Carvalho from Rio de Janeiro, Brazil

The psychiatric intern Clark Stevens (Joshua Leonard) comes to Cunningham Hall, a mental healthy facility administrated by Dr. Franks (Lance Henriksen), for a training period before his graduation in medical college. He gets close to the resident Sara (Jordan Ladd) and to Ben London, a dangerous patient lodged in cell 44 in the basement of the clinic. Clark becomes intrigued with a boy, who seems to be a ghost, and finds that Dr. Franks does not use real medication in the patients. A further investigation shows hidden dark secrets in the clinic.

"Madhouse" is an unknown low-budget movie with a surprisingly great gory story. The direction is sharp, the screenplay is very well tied up and in the end it is a worthwhile horror movie, highly recommended to be discovered by fans of this genre. My vote is seven.

--------------------------------------------------------------------------------
LOG:

Format : AVI
Format/Info : Audio Video Interleave
File size : 726 MiB
Duration : 1h 26mn
Overall bit rate : 1 169 Kbps
Writing application : VirtualDubMod 1.5.10.2 (build 2540/release)
Writing library : VirtualDubMod build 2540/release

Video
ID : 0
Format : MPEG-4 Visual
Format profile : [email protected]
Format settings, BVOP : Yes
Format settings, QPel : No
Format settings, GMC : No warppoints
Format settings, Matrix : Default (H.263)
Muxing mode : Packed bitstream
Codec ID : XVID
Codec ID/Hint : XviD
Duration : 1h 26mn
Bit rate : 1 041 Kbps
Width : 640 pixels
Height : 352 pixels
Display aspect ratio : 16:9
Frame rate : 25.000 fps
Resolution : 24 bits
Colorimetry : 4:2:0
Scan type : Progressive
Bits/(Pixel*Frame) : 0.185
Stream size : 646 MiB (89%)
Writing library : XviD 1.2.0.dev47 (UTC 2006-11-01)

Audio
Format : MPEG Audio
Format version : Version 1
Format profile : Layer 3
Codec ID : 55
Codec ID/Hint : MP3
Duration : 1h 26mn
Bit rate mode : Variable
Bit rate : 115 Kbps
Nominal bit rate : 128 Kbps
Channel(s) : 2 channels
Sampling rate : 48.0 KHz
Resolution : 16 bits
Stream size : 71.6 MiB (10%)
Alignment : Aligned on interleaves
Interleave, duration : 24 ms (0.60 video frame)
Interleave, preload duration : 159 ms
Writing library : LAME3.98r

related torrents

Torrent name

health leech seeds Size
 


comments (0)

Main Menu