Comedy

Legal Eagles (1986)Robert Redford Debra Winger (Opt MULTISUBS)_Kuth

  • Download 5x Faster
  • Download torrent
  • Direct Download
  • Rate this torrent +  |  -

Torrent info

Name:Legal Eagles (1986)Robert Redford Debra Winger (Opt MULTISUBS)_Kuth

Total Size: 707.01 MB

Magnet: Magnet Link

Seeds: 9

Leechers: 1

Stream: Watch Online @ Movie4u

Last Updated: 2017-08-20 22:42:39 (Update Now)

Torrent added: 2009-09-20 20:33:11



VPN For Torrents

Torrent Files List


Info about this release.txt (Size: 707.01 MB) (Files: 17)

 Info about this release.txt

4.62 KB

 Legal Eagles (1986)Robert Redford+Debra Winger (Opt.MULTISUBS)_Kuth.avi

694.67 MB

 Z-Optional subtitles

  Bulgarian.rar

918.61 KB

  Czech.rar

943.19 KB

  Dansk.rar

891.01 KB

  Deutsch.rar

958.18 KB

  English.rar

921.62 KB

  Francais.rar

894.79 KB

  Hungarian.rar

944.07 KB

  Nederlands.rar

849.58 KB

  Norsk.rar

873.51 KB

  Notes on subtitle files and burning of discs.txt

2.20 KB

  Polski.rar

965.75 KB

  Portugues.rar

853.30 KB

  Suomiseksi.rar

882.50 KB

  Svenska.rar

799.93 KB

  Turkish.rar

932.47 KB
 

Announce URL:

Torrent description

http://www.imdb.com/title/tt0091396/

With Daryl Hannah (then 26, two years after 'Splash')

Optional subtitles in separate idx/sub files (Work in Windows Media Player etc., see enclosed Note):
Bulgarian, Czech, Danish, Dutch, English, Finnish, French, German, Hungarian, Norwegian, Polish, Portuguese, Swedish, Turkish.

Robert Redford, as the district attorney with a partner who put a dog at the witness stand, is seduced by his naked client Daryl Hannah, who cannot enter a room without a crime beging committed.

I could not find this film on any of the torrent sites, so I made a rip for you.

Widescreen DVDrip XviD 2-pass 720x304, good stereo sound AC3.
Burn tested, runs well in both my standalone DivX players.

Format/Info : Audio Video Interleave
File size : 695 MiB
Duration : 1h 50mn
Overal bit rate : 876 Kbps

Video
Format : MPEG-4 Visual
Format profile : Streaming [email protected]
Format settings, BVOP : Yes
Format settings, QPel : No
Format settings, GMC : No warppoints
Format settings, Matrix : Default
Muxing mode : Packet Bitstream
Codec ID : XVID
Codec ID/Hint : XviD
Duration : 1h 50mn
Bit rate : 738 Kbps
Width : 720 pixels
Height : 304 pixels
Display aspect ratio : 2.35
Frame rate : 25.000 fps
Resolution : 8 bits
Colorimetry : 4:2:0
Scan type : Progressive
Bits/(Pixel*Frame) : 0.135
Stream size : 586 MiB
Writing library : XviD 1.2.0.dev47 (UTC 2006-11-01)

Audio
Format : MPEG Audio
Format version : Version 1
Format profile : Layer 3
Codec ID : 55
Codec ID/Hint : MP3
Duration : 1h 50mn
Bit rate mode : Constant
Bit rate : 128 Kbps
Minimum bit rate : 128 Kbps
Channel(s) : 2 channels
Sampling rate : 48.0 KHz
Resolution : 16 bits
Stream size : 101 MiB
Writing library : LAME3.97
Encoding settings : CBR

Source: PAL rental (note that PAL/NTSC will give no problems for avi files)

Have a look at my other quality DVD rips with optional multisubs at
http://thepiratebay.org/user/Kuthumi/

related torrents

Torrent name

health leech seeds Size
 


comments (0)

Main Menu