Animation

A wind named amnesia 1993 Audio Jap+Eng Subs Eng FLIpresentation 33

  • Download 5x Faster
  • Download torrent
  • Direct Download
  • Rate this torrent +  |  -

Torrent info

Name:A wind named amnesia 1993 Audio Jap+Eng Subs Eng FLIpresentation 33

Total Size: 4.01 GB

Magnet: Magnet Link

Seeds: 0

Leechers: 0

Stream: Watch Online @ Movie4u

Last Updated: 2015-08-06 19:31:51 (Update Now)

Torrent added: 2009-09-20 12:40:09



VPN For Torrents

Torrent Files List


VIDEO_TS (Size: 4.01 GB) (Files: 24)

 VIDEO_TS

  VIDEO_TS.BUP

16.00 KB

  VIDEO_TS.IFO

16.00 KB

  VIDEO_TS.VOB

19.69 MB

  VTS_01_0.BUP

66.00 KB

  VTS_01_0.IFO

66.00 KB

  VTS_01_0.VOB

1.92 MB

  VTS_01_1.VOB

1.00 GB

  VTS_01_2.VOB

1.00 GB

  VTS_01_3.VOB

1.00 GB

  VTS_01_4.VOB

431.78 MB

  VTS_02_0.BUP

20.00 KB

  VTS_02_0.IFO

20.00 KB

  VTS_02_0.VOB

138.00 KB

  VTS_02_1.VOB

237.54 MB

  VTS_03_0.BUP

20.00 KB

  VTS_03_0.IFO

20.00 KB

  VTS_03_0.VOB

274.00 KB

  VTS_03_1.VOB

189.19 MB

  VTS_04_0.BUP

16.00 KB

  VTS_04_0.IFO

16.00 KB

  VTS_04_0.VOB

132.00 KB

  VTS_04_1.VOB

157.71 MB

 Torrent downloaded from Demonoid.com.txt

0.05 KB

 tracked_by_h33t_com.txt

0.02 KB
 

Announce URL:

Torrent description

A wind named amnesia / Kaze no na wa amunejia - Kazuo Yamazaki -1993
http://www.imdb.com/title/tt0108570/



Original DVD full rip
Audio - Jap+Eng
Subs - Eng
NTSC
(technical details way bellow)
Genre: Action / Romance / Sci-Fi / Adventure / Fantasy

A wind has swept the Earth taking all the memories from everyone. No one knows who they are, how to speak, or how to use the tools of modern civilization. Two years later a young man who has been re-educated travels across America on a mysterious journey. (imdb.com)

Let me be down to earth. I hate Anime. I almost hate every thing about it from cheesy plots to cheesy overused plots. But this movie is like none of that. It deals with every human on the face of the Earth being drained of their memories and turning them into cavemen. The story starts with a man named Wataru who meets some woman that still has her memories and was not affected by the wind that drained away everyones thoughts. Mainly they have them trying to reach New York City while this machine which was meant for dealing with riots in urban settings trying to kill them. Since everyone is in a caveman state of mind, naturally their unorthodox behavior has made them targets. But besides the whole machine attacking them, it\'s like the Terminator movies. The way how the settings were made out, and mainly how the plot kept going, it makes this movie very much worth watching. It\'s been about 5 years since I last saw it, but if you ever get a chance to see it, do yourself a favor and buy it. You will not be disappointed. (a reviewer at imdb.com)

NOTE: do yourselves a favor: don\'t hear it dubbed, see it subbed.

=================================================================================

On peut violer les lois sans qu\'elles crient. (Talleyrand)

=================================================================================


Technical blab required by some sites:

Video
ID : 224 (0xE0)
Format : MPEG Video
Format version : Version 2
Format profile : [email protected]
Format settings, Matrix : Default
Duration : 23mn 29s
Bit rate mode : Constant
Bit rate : 5 467 Kbps
Nominal bit rate : 8 000 Kbps
Width : 720 pixels
Height : 480 pixels
Display aspect ratio : 4:3
Frame rate : 29.970 fps
Standard : NTSC
Colorimetry : 4:2:0
Scan type : Interlaced
Scan order : Top Field First
Bits/(Pixel*Frame) : 0.528
Stream size : 919 MiB (90%)

Audio #1
ID : 128 (0x80)
Format : AC-3
Format/Info : Audio Coding 3
Duration : 23mn 29s
Bit rate mode : Constant
Bit rate : 192 Kbps
Channel(s) : 2 channels
Channel positions : L R
Sampling rate : 48.0 KHz
Stream size : 32.3 MiB (3%)

Audio #2
ID : 129 (0x81)
Format : AC-3
Format/Info : Audio Coding 3
Duration : 23mn 29s
Bit rate mode : Constant
Bit rate : 192 Kbps
Channel(s) : 2 channels
Channel positions : L R
Sampling rate : 48.0 KHz
Stream size : 32.3 MiB (3%)

Text
ID : 32 (0x20)
Format : RLE
Format/Info : Run-length encoding

related torrents

Torrent name

health leech seeds Size
 


comments (0)

Main Menu