Comedy

Laurel and Hardy (2) Shorts DVDRip BigDadE

  • Download 5x Faster
  • Download torrent
  • Direct Download
  • Rate this torrent +  |  -
Laurel and Hardy (2) Shorts DVDRip BigDadE

Free and Direct Download with Usenet.nl 300GB+ free


Torrent info

Name:Laurel and Hardy (2) Shorts DVDRip BigDadE

Total Size: 594.83 MB

Magnet: Magnet Link

Seeds: 7

Leechers: 3

Stream: Watch Online @ Movie4u

Last Updated: 0000-00-00 00:00:00 (Update Now)

Torrent added: 2009-09-20 09:38:36





Torrent Files List


LAUREL_AND_HARDY_WAY_OUT_WEST_DVDrip_big_dad_e.mp4 (Size: 594.83 MB) (Files: 6)

 LAUREL_AND_HARDY_WAY_OUT_WEST_DVDrip_big_dad_e.mp4

405.10 MB

 LAUREL_AND_HARDY_CHICKENS_COME_HOME_DVDrip_big_dad_e.mp4

189.66 MB

 Laurel and Hardy.jpg

49.12 KB

 big_dad_e.jpg

17.05 KB

 big_dad_E.txt

2.94 KB

 tracked_by_h33t_com.txt

0.02 KB
 

Announce URL: http://www.h33t.com:3310/announce

Torrent description

Way Out West (1937)
Director: James W. Horne

A Rumble Of Roars That Ends In A Laff Riot !

Stan and Ollie are charged with delivering the deed to a valuable gold mine to the daughter of a dead prospector. However they reckon without the machinations of her evil guardian Mickey Finn who is determined to have the gold mine for himself and his saloon singer wife Lola. Written by Stephen Harrison [email protected]}

Stan and Ollie are headed for the western town of Brushwood Gulch. Their mission is to find a woman named Mary Roberts in order to deliver her a deed to a valuable gold mine left to her by her father. Unfortunately, their problems start as soon as they arrive in town when they realize they upset the wife of the town's Sheriff while on the coach they hitch a ride on, and they must catch the next coach out of town...or else. Their problems continue when Mickey Finn, Mary's guardian, learns why they're here, and has his wife, Lola Marcel, play Mary in order to hijack the deed from them. However, before leaving town, they encounter the real Mary Roberts and are forced to get the deed back. What ensues from there is more hilarity then you could ever image. Written by [email protected]

File Confirmation:

Format : MPEG-4
Format profile : Base Media
Codec ID : isom
File size : 405 MiB
Duration : 1h 4mn
Overall bit rate : 884 Kbps
Movie name : LAUREL_AND_HARDY_VOL2_Title06
Encoded date : UTC 2009-07-26 14:40:39
Tagged date : UTC 2009-07-26 14:40:39
Comment : QuickTime 6.0 or greater

Video
ID : 1
Format : MPEG-4 Visual
Format profile : [email protected]
Format settings, BVOP : No
Format settings, QPel : No
Format settings, GMC : No warppoints
Format settings, Matrix : Default (H.263)
Codec ID : 20
Duration : 1h 4mn
Bit rate mode : Constant
Bit rate : 768 Kbps
Width : 320 pixels
Height : 240 pixels
Display aspect ratio : 4/3
Frame rate mode : Constant
Frame rate : 29.970 fps
Resolution : 24 bits
Colorimetry : 4:2:0
Scan type : Progressive
Bits/(Pixel*Frame) : 0.334
Stream size : 351 MiB (87%)
Writing library : XviD 1.1.0 (UTC 2005-11-22)
Encoded date : UTC 2009-07-26 14:40:39
Tagged date : UTC 2009-07-26 14:40:39

Audio
ID : 2
Format : AAC
Format/Info : Advanced Audio Codec
Format version : Version 4
Format profile : LC
Format settings, SBR : No
Codec ID : 40
Duration : 1h 4mn
Bit rate mode : Constant
Bit rate : 112 Kbps
Channel(s) : 2 channels
Channel positions : L R
Sampling rate : 48.0 KHz
Resolution : 16 bits
Stream size : 51.3 MiB (13%)
Encoded date : UTC 2009-07-26 14:40:39
Tagged date : UTC 2009-07-26 14:40:39

Chickens Come Home (1931)
Director: James W. Horne

Every man has a past - With some little "Indiscretion" he would like to bury. Mr. Laurel and Mr. Hardy have thirty or forty they would like to cremate.

Ollie is running for mayor when an old flame (Mae Busch) tries to blackmail him with a old photo ('just the same old apple-cheeked boy'). Stan's attempts to help Ollie keep the blackmailer at bay incur the wrath of the shrewish Mrs Laurel who takes her revenge with an axe. Written by Stephen Harrison [email protected]}


File Confirmation:

Format : MPEG-4
Format profile : Base Media
Codec ID : isom
File size : 190 MiB
Duration : 30mn 3s
Overall bit rate : 882 Kbps
Movie name : LAUREL_AND_HARDY_VOL2_Title04
Encoded date : UTC 2009-07-26 14:09:54
Tagged date : UTC 2009-07-26 14:09:54
Comment : QuickTime 6.0 or greater

Video
ID : 1
Format : MPEG-4 Visual
Format profile : [email protected]
Format settings, BVOP : No
Format settings, QPel : No
Format settings, GMC : No warppoints
Format settings, Matrix : Default (H.263)
Codec ID : 20
Duration : 30mn 3s
Bit rate mode : Constant
Bit rate : 768 Kbps
Width : 320 pixels
Height : 240 pixels
Display aspect ratio : 4/3
Frame rate mode : Constant
Frame rate : 29.970 fps
Resolution : 24 bits
Colorimetry : 4:2:0
Scan type : Progressive
Bits/(Pixel*Frame) : 0.334
Stream size : 165 MiB (87%)
Writing library : XviD 1.1.0 (UTC 2005-11-22)
Encoded date : UTC 2009-07-26 14:09:54
Tagged date : UTC 2009-07-26 14:09:54

Audio
ID : 2
Format : AAC
Format/Info : Advanced Audio Codec
Format version : Version 4
Format profile : LC
Format settings, SBR : No
Codec ID : 40
Duration : 30mn 3s
Bit rate mode : Constant
Bit rate : 112 Kbps
Channel(s) : 2 channels
Channel positions : L R
Sampling rate : 48.0 KHz
Resolution : 16 bits
Stream size : 24.1 MiB (13%)
Encoded date : UTC 2009-07-26 14:09:54
Tagged date : UTC 2009-07-26 14:09:54

File Scan:

Malwarebytes' Anti-Malware 1.39
Database version: 2528
Windows 5.1.2600 Service Pack 3

7/31/2009 3:01:58 AM
mbam-log-2009-07-31 (03-01-58).txt

Scan type: Quick Scan
Objects scanned: 1
Time elapsed: 13 second(s)

Memory Processes Infected: 0
Memory Modules Infected: 0
Registry Keys Infected: 0
Registry Values Infected: 0
Registry Data Items Infected: 0
Folders Infected: 0
Files Infected: 0

Memory Processes Infected:
(No malicious items detected)

Memory Modules Infected:
(No malicious items detected)

Registry Keys Infected:
(No malicious items detected)

Registry Values Infected:
(No malicious items detected)

Registry Data Items Infected:
(No malicious items detected)

Folders Infected:
(No malicious items detected)

Files Infected:
(No malicious items detected)

ALWAYS SEED!

related torrents

Torrent name

health leech seeds Size
 

comments (0)

Main Menu