Action

Dick Tracy (1990) DVDRip BigDadE

  • Download 5x Faster
  • Download torrent
  • Direct Download
  • Rate this torrent +  |  -
Dick Tracy (1990) DVDRip BigDadE

Anonymous and Free Direct Download 300GB+


Torrent info

Name:Dick Tracy (1990) DVDRip BigDadE

Total Size: 631.30 MB

Magnet: Magnet Link

Seeds: 1

Leechers: 2

Stream: Watch Online @ Movie4u

Last Updated: 2010-12-14 07:24:30 (Update Now)

Torrent added: 2009-09-20 09:38:29



VPN For Torrents

Torrent Files List


Dick Tracy (1990) DVDRip [h33t][big_dad_e].mp4 (Size: 631.30 MB) (Files: 5)

 Dick Tracy (1990) DVDRip [h33t][big_dad_e].mp4

631.24 MB

 Dick Tracy (1990).jpg

39.61 KB

 big_dad_e.jpg

17.05 KB

 big_dad_E.txt

2.94 KB

 tracked_by_h33t_com.txt

0.02 KB
 

Announce URL: http://www.h33t.com:3310/announce

Torrent description

Director: Warren Beatty

I'm on my way.
All Tess Trueheart wants is to settle down to a quiet life with her boyfriend, detective Dick Tracy. But there's something pretty rotten going on in town, with someone pretty rotten behind it, and Tracy has his hands full with the likes of villain Big Boy Caprice and with the almost irresistible Breathless Mahoney. Written by Jeremy Perkins [email protected]}

Legendary police detective Dick Tracy is the only man tough enough to take on gangster boss Big Boy Caprice and his band of menacing mobsters. Dedicated to his work but at the same time devoted to his loyal girlfriend, Tess Trueheart, Tracy find himself torn between love and duty. His relentless crusade against crime becomes even more difficult when he gets saddled with an engaging orphan and meets seductive and sultry Breathless Mahoney, a torch singer determined to get the best of Tracy. A faceless character, known as the Blank, threatens both Tracy and Big Boy, and it takes all of Tracy's skills to save the city. Written by Anthony Pereyra [email protected]}

File Confirmation:
Complete name : C:Documents and SettingsOwnerDesktopconvDICK_TRACY_DVDrip_big_dad_e.mp4
Format : MPEG-4
Format profile : Base Media
Codec ID : isom
File size : 631 MiB
Duration : 1h 45mn
Overall bit rate : 840 Kbps
Movie name : DICK_TRACY_Title01
Encoded date : UTC 2009-07-31 04:56:57
Tagged date : UTC 2009-07-31 04:56:57
Comment : QuickTime 6.0 or greater

Video
ID : 1
Format : MPEG-4 Visual
Format profile : [email protected]
Format settings, BVOP : No
Format settings, QPel : No
Format settings, GMC : No warppoints
Format settings, Matrix : Default (H.263)
Codec ID : 20
Duration : 1h 45mn
Bit rate mode : Constant
Bit rate : 723 Kbps
Nominal bit rate : 768 Kbps
Width : 320 pixels
Height : 192 pixels
Display aspect ratio : 1.667
Frame rate mode : Constant
Frame rate : 29.970 fps
Resolution : 24 bits
Colorimetry : 4:2:0
Scan type : Progressive
Bits/(Pixel*Frame) : 0.393
Stream size : 543 MiB (86%)
Writing library : XviD 1.1.0 (UTC 2005-11-22)
Encoded date : UTC 2009-07-31 04:56:57
Tagged date : UTC 2009-07-31 04:56:57

Audio
ID : 2
Format : AAC
Format/Info : Advanced Audio Codec
Format version : Version 4
Format profile : LC
Format settings, SBR : No
Codec ID : 40
Duration : 1h 45mn
Bit rate mode : Constant
Bit rate : 112 Kbps
Channel(s) : 2 channels
Channel positions : L R
Sampling rate : 48.0 KHz
Resolution : 16 bits
Stream size : 84.2 MiB (13%)
Encoded date : UTC 2009-07-31 04:56:57
Tagged date : UTC 2009-07-31 04:56:57

File Scan:
Malwarebytes' Anti-Malware 1.39
Database version: 2528
Windows 5.1.2600 Service Pack 3

8/1/2009 3:08:37 AM
mbam-log-2009-08-01 (03-08-37).txt

Scan type: Quick Scan
Objects scanned: 1
Time elapsed: 5 second(s)

Memory Processes Infected: 0
Memory Modules Infected: 0
Registry Keys Infected: 0
Registry Values Infected: 0
Registry Data Items Infected: 0
Folders Infected: 0
Files Infected: 0

Memory Processes Infected:
(No malicious items detected)

Memory Modules Infected:
(No malicious items detected)

Registry Keys Infected:
(No malicious items detected)

Registry Values Infected:
(No malicious items detected)

Registry Data Items Infected:
(No malicious items detected)

Folders Infected:
(No malicious items detected)

Files Infected:
(No malicious items detected)
ALWAYS SEED!

related torrents

Torrent name

health leech seeds Size

Dick Tracy (1990)

0 0 631.00 MB 0

Dick Tracy 1990

0 8 2.00 GB 0
 


comments (0)

Main Menu