Action

Triple X [2002] 1280x528 HD Mp4 H264 AAC 5 1 ch 3Li

  • Download 5x Faster
  • Download torrent
  • Direct Download
  • Rate this torrent +  |  -
Triple X [2002] 1280x528 HD Mp4 H264 AAC 5 1 ch 3Li

Free and Direct Download with Usenet.nl 300GB+ free


Torrent info

Name:Triple X [2002] 1280x528 HD Mp4 H264 AAC 5 1 ch 3Li

Total Size: 1.44 GB

Magnet: Magnet Link

Seeds: 0

Leechers: 0

Stream: Watch Online @ Movie4u

Last Updated: 0000-00-00 00:00:00 (Update Now)

Torrent added: 2009-09-20 08:36:06





Torrent Files List


Multi subs (Size: 1.44 GB) (Files: 19)

 Multi subs

  Triple X Track6 Greek.srt

88.32 KB

  Triple X Track5 Finnish.srt

69.29 KB

  Triple X Track8 Swedish.srt

68.83 KB

  Triple X Track7 Spanish.srt

68.68 KB

  Triple X Track4 Czech.srt

66.17 KB

  Triple X Track3 Eng.srt

65.73 KB

  Triple X.mp4.txt

4.88 KB

  Torrent downloaded from Demonoid.com.txt

0.05 KB

  tracked_by_h33t_com.txt

0.02 KB

 Triple X.mp4

1.44 GB

 snapshot20090920130550.jpg

112.01 KB

 snapshot20090920130320.jpg

98.14 KB

 snapshot20090920131718.jpg

86.84 KB

 snapshot20090920130108.jpg

80.92 KB

 snapshot20090920130037.jpg

79.29 KB

 snapshot20090920130736.jpg

78.98 KB

 snapshot20090920130210.jpg

71.50 KB

 snapshot20090920130802.jpg

68.81 KB

 snapshot20090920130146.jpg

58.82 KB
 

Announce URL:

Torrent description

General
Complete name : Triple X.mp4
Format : MPEG-4
Format profile : Base Media
Codec ID : isom
File size : 1.44 GiB
Duration : 2h 4mn
Overall bit rate : 1 659 Kbps
Encoded date : UTC 2009-09-19 10:13:03
Tagged date : UTC 2009-09-19 10:13:03

Video
ID : 1
Format : AVC
Format/Info : Advanced Video Codec
Format profile : [email protected]
Format settings, CABAC : Yes
Format settings, ReFrames : 3 frames
Codec ID : avc1
Codec ID/Info : Advanced Video Coding
Duration : 2h 4mn
Bit rate mode : Variable
Bit rate : 1 466 Kbps
Maximum bit rate : 5 233 Kbps
Width : 1 280 pixels
Height : 528 pixels
Display aspect ratio : 2.40:1
Frame rate mode : Constant
Frame rate : 23.976 fps
Resolution : 24 bits
Colorimetry : 4:2:0
Scan type : Progressive
Bits/(Pixel*Frame) : 0.090
Stream size : 1.27 GiB (88%)
Title : xXx By 3Li
Writing library : x264 core 68

Audio
ID : 2
Format : AAC
Format/Info : Advanced Audio Codec
Format version : Version 4
Format profile : LC
Format settings, SBR : No
Codec ID : 40
Duration : 2h 4mn
Bit rate mode : Variable
Bit rate : 192 Kbps
Maximum bit rate : 339 Kbps
Channel(s) : 6 channels
Channel positions : Front: L C R, Rear: L R, LFE
Sampling rate : 48.0 KHz
Resolution : 16 bits
Stream size : 169 MiB (11%)
Title : xXx
Language : English
Encoded date : UTC 2009-09-19 10:13:24
Tagged date : UTC 2009-09-19 10:13:28

related torrents

Torrent name

health leech seeds Size
 

comments (0)

Main Menu