Pop

jordin sparks SOS[let the music play]x264[2009] mva[h33t][Dave3737]

  • Download 5x Faster
  • Download torrent
  • Direct Download
  • Rate this torrent +  |  -
jordin sparks SOS[let the music play]x264[2009] mva[h33t][Dave3737]

Free and Direct Download with Usenet.nl 300GB+ free


Torrent info

Name:jordin sparks SOS[let the music play]x264[2009] mva[h33t][Dave3737]

Total Size: 38.65 MB

Magnet: Magnet Link

Seeds: 0

Leechers: 0

Stream: Watch Online @ Movie4u

Last Updated: 2015-08-31 06:45:58 (Update Now)

Torrent added: 2009-09-20 08:34:10





Torrent Files List


jordin sparks SOS(let the music play)x264-2009-mva.mkv (Size: 38.65 MB) (Files: 4)

 jordin sparks SOS(let the music play)x264-2009-mva.mkv

38.65 MB

 info.txt

3.57 KB

 h33t - Dave 3737 Torrent list.URL

0.07 KB

 tracked_by_h33t_com.txt

0.02 KB
 

tracker

leech seeds
 

Torrent description

jordin sparks SOS[let the music play]x264[2009] mva[h33t][Dave3737] preview 2

jordin sparks SOS[let the music play]x264[2009] mva[h33t][Dave3737] preview 0

jordin sparks SOS[let the music play]x264[2009] mva[h33t][Dave3737]

Format : Matroska
File size : 38.6 MiB
Duration : 3mn 15s
Overall bit rate : 1 662 Kbps
Encoded date : UTC 2009-09-18 20:29:44
Writing application : mkvmerge v2.4.0 ('Fumbling Towards Ecstasy') built on Oct 11 2008 20:13:15
Writing library : libebml v0.7.7 + libmatroska v0.8.1

Video

ID : 1
Format : AVC
Format/Info : Advanced Video Codec
Format profile : [email protected]
Format settings, CABAC : Yes
Format settings, ReFrames : 5 frames
Muxing mode : Container [email protected]
Codec ID : V_MPEG4/ISO/AVC
Duration : 3mn 15s
Bit rate : 1 423 Kbps
Width : 544 pixels
Height : 448 pixels
Display aspect ratio : 2.35
Frame rate : 25.000 fps
Resolution : 24 bits
Colorimetry : 4:2:0
Scan type : Progressive
Bits/(Pixel*Frame) : 0.234
Stream size : 33.1 MiB (86%)
Writing library : x264 core 68 r1183M f21daff
Encoding settings : cabac=1 / ref=5 / deblock=1:0:0 / analyse=0x1:0x111 / me=umh / subme=8 / psy_rd=1.0:0.0 / mixed_ref=1 / me_range=16 / chroma_me=1 / trellis=1 / 8x8dct=0 / cqm=0 / deadzone=21,11 / chroma_qp_offset=-2 / threads=12 / nr=0 / decimate=1 / mbaff=0 / bframes=3 / b_pyramid=1 / b_adapt=1 / b_bias=0 / direct=1 / wpredb=1 / keyint=250 / keyint_min=25 / scenecut=40 / rc=crf / crf=21.0 / qcomp=0.60 / qpmin=10 / qpmax=28 / qpstep=4 / ip_ratio=1.40 / pb_ratio=1.30 / aq=1:1.10

Audio

ID : 2
Format : MPEG Audio
Format version : Version 1
Format profile : Layer 3
Codec ID : A_MPEG/L3
Codec ID/Hint : MP3
Duration : 3mn 15s
Bit rate mode : Variable
Bit rate : 206 Kbps
Minimum bit rate : 32.0 Kbps
Channel(s) : 2 channels
Sampling rate : 44.1 KHz
Resolution : 16 bits
Stream size : 4.79 MiB (12%)
Writing library : LAME3.98a
Encoding settings : -m j -V 2 -q 0 -lowpass 18.6 --vbr-new -b 32

Information..........: Visit h33t.com for all the best releases
Files................: jordin sparks SOS[let the music play]x264[2009] mva,Info.txt,tracked by h33t.com.txt,user details php
Tracker..............: http://www.h33t.com:3310/announce

[color=red]My Torrents[/color]

jordin sparks SOS[let the music play]x264[2009] mva[h33t][Dave3737] preview 3

jordin sparks SOS[let the music play]x264[2009] mva[h33t][Dave3737] preview 4

jordin sparks SOS[let the music play]x264[2009] mva[h33t][Dave3737] preview 5
jordin sparks SOS[let the music play]x264[2009] mva[h33t][Dave3737] preview 6
jordin sparks SOS[let the music play]x264[2009] mva[h33t][Dave3737] preview 1
jordin sparks SOS[let the music play]x264[2009] mva[h33t][Dave3737] preview 7



related torrents

Torrent name

health leech seeds Size
 

comments (0)

Main Menu