Other

UFC 103 Franklin vs Belfort [SatRiP XviD Mp3 ENG][TNTVillage Scambioetico]

  • Download 5x Faster
  • Download torrent
  • Direct Download
  • Rate this torrent +  |  -

Torrent info

Name:UFC 103 Franklin vs Belfort [SatRiP XviD Mp3 ENG][TNTVillage Scambioetico]

Total Size: 1.35 GB

Magnet: Magnet Link

Seeds: 226

Leechers: 57

Stream: Watch Online @ Movie4u

Last Updated: 2010-12-04 18:06:54 (Update Now)

Torrent added: 2009-09-20 06:38:47




Torrent Files List


UFC.103.Franlin.vs.Belfort.DSR.XviD-XWT.avi (Size: 1.35 GB) (Files: 1)

 UFC.103.Franlin.vs.Belfort.DSR.XviD-XWT.avi

1.35 GB
 

Announce URL: http://tracker.tntvillage.scambioetico.org:2710/announce

Torrent description

UFC 103 Franklin vs Belfort [SatRiP-XviD-Mp3-ENG][TNTVillage.Scambioetico]


General
Complete name : C:\UFC.103.Franlin.vs.Belfort.DSR.XviD-XWT.avi
Format : AVI
Format/Info : Audio Video Interleave
File size : 1.35 GiB
Duration : 2h 46mn
Overall bit rate : 1 163 Kbps

Video
Format : MPEG-4 Visual
Format profile : Streaming [email protected]
Format settings, BVOP : Yes
Format settings, QPel : No
Format settings, GMC : No warppoints
Format settings, Matrix : Default
Codec ID : XVID
Codec ID/Hint : XviD
Duration : 2h 46mn
Bit rate : 1 023 Kbps
Width : 640 pixels
Height : 368 pixels
Display aspect ratio : 16/9
Frame rate : 25.000 fps
Resolution : 24 bits
Colorimetry : 4:2:0
Scan type : Progressive
Bits/(Pixel*Frame) : 0.174
Stream size : 1.19 GiB (88%)
Writing library : XviD 1.1.2 (UTC 2006-11-01)

Audio
Format : MPEG Audio
Format version : Version 1
Format profile : Layer 3
Codec ID : 55
Codec ID/Hint : MP3
Duration : 2h 46mn
Bit rate mode : Constant
Bit rate : 128 Kbps
Channel(s) : 2 channels
Sampling rate : 44.1 KHz
Resolution : 16 bits
Stream size : 153 MiB (11%)
Alignment : Aligned on interleaves
Interleave, duration : 26 ms (0.65 video frame)
Interleave, preload duration : 809 ms



Main-Event:

195 lbs. Rich "Ace" Franklin(25-4-0,1NC) vs Vitor "The Phenom" Belfort(18-8)


Main Card(Televised):

265 lbs. Mirko "Cro Cop" Filipovic(25-6-2,1NC) vs Junior "Cigano" dos Santos(8-1)
170 lbs. Martin "The Hitman" Kampmann(15-2) vs Paul "Semtex" Daley(21-8-2)
170 lbs. Josh "Kos" Koscheck(12-4) vs Frank "Twinkle Toes" Trigg(19-6)
155 lbs. Hermes Franca(19-7) vs Tyson Griffin(13-2)


Under-Card(May Not Be Televised):

155 lbs. Efrain "Hecho En Mexico" Escudero (11-0) vs Cole "Magrinho" Miller(15-3)
155 lbs. Jim Miller(14-2) vs Thiago Tavares(14-3)
155 lbs. Dan Lauzon(12-2) vs Rafaello Oliveira (8-1)
185 lbs. Drew "The Massacre" McFedries(8-5) vs Tomasz "Gorilla" Drwal(16-2)
155 lbs. Rafael Dos Anjos(11-4) vs Matt "Handsome" Wiman(10-5)
205 lbs. Eliot "The Fire" Marshall(7-1) vs Jason "The Hitman" Brilz(17-1-1)

related torrents

Torrent name

health leech seeds Size
 


comments (0)

Main Menu