Fantasy

Beowulf 2007 DVDrip oddball ENG

  • Download 5x Faster
  • Download torrent
  • Direct Download
  • Rate this torrent +  |  -
Beowulf 2007 DVDrip oddball ENG

Anonymous and Free Direct Download 300GB+


Torrent info

Name:Beowulf 2007 DVDrip oddball ENG

Total Size: 1.10 GB

Magnet: Magnet Link

Seeds: 0

Leechers: 0

Stream: Watch Online @ Movie4u

Last Updated: 2015-09-19 22:10:33 (Update Now)

Torrent added: 2009-09-20 03:37:34



VPN For Torrents

Torrent Files List


Beowulf - 2007 DVDrip oddball-ENG.avi (Size: 1.10 GB) (Files: 3)

 Beowulf - 2007 DVDrip oddball-ENG.avi

1.10 GB

 Beowulf DVD Cover.jpg

4.10 KB

 Reed Me .txt

0.06 KB
 

tracker

leech seeds
 

Torrent description

` __ __ __ __ __
.-----..--| |.--| | | |--..---.-.| || |
| _ || _ || _ | | _ || _ || || |
|_____||_____||_____| |_____||___._||__||__|
-links.com `
Beowulf is a 2007 performance capture fantasy film based on the
Anglo-Saxon English epic poem of the same name. Directed by
Robert Zemeckis, the film was created through a motion capture
process similar to the technique used in The Polar Express.
The cast includes Ray Winstone, Anthony Hopkins, Robin Wright
Penn, Brendan Gleeson, John Malkovich, Crispin Glover,
Alison Lohman, and Angelina Jolie. It was released in the
United Kingdom and United States on November 16, 2007, and
was available to view in IMAX 3D, Real D, Dolby 3D and standard
2D format. `

Screen Shots `

Beowulf   2007 DVDrip oddball ENG preview 0

Beowulf   2007 DVDrip oddball ENG preview 1

Beowulf   2007 DVDrip oddball ENG preview 2

Beowulf   2007 DVDrip oddball ENG preview 3

Beowulf   2007 DVDrip oddball ENG preview 4 `

cast `


Ray Winstone .................. Beowulf / Golden Man / Dragon

Anthony Hopkins ............... Hrothgar

John Malkovich ................ Unferth

Robin Wright Penn ............. Wealthow (as Robin Wright-Penn)

Brendan Gleeson ............... Wiglaf

Crispin Glover ................ Grendel

Alison Lohman ................. Ursula

Angelina Jolie ................ Grendel's Mother `

General
Complete name : Beowulf - 2007
Format : AVI
Format/Info : Audio Video Interleave
File size : 1.10 GiB
Duration : 1h 49mn
Overall bit rate : 1 434 Kbps

Video
Format : MPEG-4 Visual
Format profile : Streaming [email protected]
Format settings, BVOP : Yes
Format settings, QPel : No
Format settings, GMC : No warppoints
Format settings, Matrix : Default
Muxing mode : Packed bitstream
Codec ID : XVID
Codec ID/Hint : XviD
Duration : 1h 49mn
Bit rate : 1 230 Kbps
Width : 1 024 pixels
Height : 582 pixels
Display aspect ratio : 16/9
Frame rate : 29.970 fps
Resolution : 24 bits
Colorimetry : 4:2:0
Scan type : Progressive
Bits/(Pixel*Frame) : 0.069
Stream size : 963 MiB (86%)
Writing library : XviD 1.1.0 (UTC 2005-11-22)

Audio
Format : MPEG Audio
Format version : Version 1
Format profile : Layer 3
Codec ID : 55
Codec ID/Hint : MP3
Duration : 1h 49mn
Bit rate mode : Constant
Bit rate : 192 Kbps
Channel(s) : 2 channels
Sampling rate : 44.1 KHz
Resolution : 16 bits
Video delay : 26ms
Stream size : 150 MiB (13%)
Alignment : Split accross interleaves
Interleave, duration : 33 ms (1.00 video frame)
Title : Audio Stream
Writing library : LAME3.92 `

related torrents

Torrent name

health leech seeds Size
 


comments (0)

Main Menu