Other

The Crew 2008 DVDrip oddball ENG

  • Download 5x Faster
  • Download torrent
  • Direct Download
  • Rate this torrent +  |  -
The Crew 2008 DVDrip oddball ENG

Free and Direct Download with Usenet.nl 300GB+ free


Torrent info

Name:The Crew 2008 DVDrip oddball ENG

Total Size: 1.18 GB

Magnet: Magnet Link

Seeds: 0

Leechers: 0

Stream: Watch Online @ Movie4u

Last Updated: 2010-09-22 05:40:58 (Update Now)

Torrent added: 2009-09-20 03:35:34





Torrent Files List


The Crew - 2008 DVDrip oddball-ENG.avi (Size: 1.18 GB) (Files: 3)

 The Crew - 2008 DVDrip oddball-ENG.avi

1.18 GB

 The Crew DVD Cover.jpg

4.80 KB

 Reed Me .txt

0.06 KB
 

Announce URL: http://tracker.thepiratebay.org/announce

Torrent description

`
,o888888o. 8 888888888o. 8 888888888o.
. 8888 `88. 8 8888 `^888. 8 8888 `^888.
,8 8888 `8b 8 8888 `88. 8 8888 `88.
88 8888 `8b 8 8888 `88 8 8888 `88
88 8888 88 8 8888 88 8 8888 88
88 8888 88 8 8888 88 8 8888 88
88 8888 ,8P 8 8888 ,88 8 8888 ,88
`8 8888 ,8P 8 8888 ,88' 8 8888 ,88'
` 8888 ,88' 8 8888 ,o88P' 8 8888 ,o88P'
`8888888P' 8 888888888P' 8 888888888P'

oddball
8 888888888o .8. -links 8 8888 8 8888
8 8888 `88. .888. . 8 8888 8 8888
8 8888 `88 :88888. c 8 8888 8 8888
8 8888 ,88 . `88888. o 8 8888 8 8888
8 8888. ,88' .8. `88888. m 8 8888 8 8888
8 8888888888 .8`8. `88888. 8 8888 8 8888
8 8888 `88. .8' `8. `88888. 8 8888 8 8888
8 8888 88 .8' `8. `88888. 8 8888 8 8888
8 8888 ,88' .888888888. `88888. 8 8888 8 8888
8 888888888P .8' `8. `88888. 8 888888888888 8 888888888888


The Crew is a 2008 British crime film based on the novel "Outlaws" by Kevin Sampson.
It is set in the criminal underworld of Northern England.

Screen Shots

The Crew   2008 DVDrip oddball ENG preview 0

The Crew   2008 DVDrip oddball ENG preview 1

The Crew   2008 DVDrip oddball ENG preview 2

The Crew   2008 DVDrip oddball ENG preview 3

The Crew   2008 DVDrip oddball ENG preview 4



+-+-+-+-+
|c|a|s|t|
+-+-+-+-+
Actor Role


Scot Williams ............................. Ged Brennan
Kenny Doughty ............................. Ratter
Rory McCann ............................... Moby
Stephen Graham ............................ Franner
Cordelia Bugeja ........................... Debs
Mem Ferda ................................. Dusan
Philip Olivier ............................ Paul the Hom
Mike Dolan ................................ Lucas
General
Complete name : The Crew
Format : AVI
Format/Info : Audio Video Interleave
File size : 1.18 GiB
Duration : 1h 57mn
Overall bit rate : 1 432 Kbps

Video
Format : MPEG-4 Visual
Format profile : Streaming [email protected]
Format settings, BVOP : Yes
Format settings, QPel : No
Format settings, GMC : No warppoints
Format settings, Matrix : Default
Muxing mode : Packed bitstream
Codec ID : XVID
Codec ID/Hint : XviD
Duration : 1h 57mn
Bit rate : 1 228 Kbps
Width : 1 024 pixels
Height : 582 pixels
Display aspect ratio : 16/9
Frame rate : 29.970 fps
Resolution : 24 bits
Colorimetry : 4:2:0
Scan type : Progressive
Bits/(Pixel*Frame) : 0.069
Stream size : 1.01 GiB (86%)
Writing library : XviD 1.1.0 (UTC 2005-11-22)

Audio
Format : MPEG Audio
Format version : Version 1
Format profile : Layer 3
Codec ID : 55
Codec ID/Hint : MP3
Duration : 1h 57mn
Bit rate mode : Constant
Bit rate : 192 Kbps
Channel(s) : 2 channels
Sampling rate : 44.1 KHz
Resolution : 16 bits
Video delay : 26ms
Stream size : 162 MiB (13%)
Alignment : Split accross interleaves
Interleave, duration : 33 ms (1.00 video frame)
Title : Audio Stream
Writing library : LAME3.92

related torrents

Torrent name

health leech seeds Size

21 2008 DVDrip oddball ENG

2 8 973.10 MB 0
 

comments (0)

Main Menu