Movies - Other

Flatliners 1990 DVDrip oddball ENG

  • Download 5x Faster
  • Download torrent
  • Direct Download
  • Rate this torrent +  |  -
Flatliners 1990 DVDrip oddball ENG

Anonymous and Free Direct Download 300GB+


Torrent info

Name:Flatliners 1990 DVDrip oddball ENG

Total Size: 948.24 MB

Magnet: Magnet Link

Seeds: 0

Leechers: 0

Stream: Watch Online @ Movie4u

Last Updated: 2015-09-30 10:44:09 (Update Now)

Torrent added: 2009-09-20 03:34:36



VPN For Torrents

Torrent Files List


Flatliners - 1990 DVDrip oddball-ENG.avi (Size: 948.24 MB) (Files: 3)

 Flatliners - 1990 DVDrip oddball-ENG.avi

948.24 MB

 Flatliners - Cover.jpg

3.33 KB

 Reed Me .txt

0.06 KB
 

tracker

leech seeds
 

Torrent description

`
,o888888o. 8 888888888o. 8 888888888o.
. 8888 `88. 8 8888 `^888. 8 8888 `^888.
,8 8888 `8b 8 8888 `88. 8 8888 `88.
88 8888 `8b 8 8888 `88 8 8888 `88
88 8888 88 8 8888 88 8 8888 88
88 8888 88 8 8888 88 8 8888 88
88 8888 ,8P 8 8888 ,88 8 8888 ,88
`8 8888 ,8P 8 8888 ,88' 8 8888 ,88'
` 8888 ,88' 8 8888 ,o88P' 8 8888 ,o88P'
`8888888P' 8 888888888P' 8 888888888P'

oddball
8 888888888o .8. -links 8 8888 8 8888
8 8888 `88. .888. . 8 8888 8 8888
8 8888 `88 :88888. c 8 8888 8 8888
8 8888 ,88 . `88888. o 8 8888 8 8888
8 8888. ,88' .8. `88888. m 8 8888 8 8888
8 8888888888 .8`8. `88888. 8 8888 8 8888
8 8888 `88. .8' `8. `88888. 8 8888 8 8888
8 8888 88 .8' `8. `88888. 8 8888 8 8888
8 8888 ,88' .888888888. `88888. 8 8888 8 8888
8 888888888P .8' `8. `88888. 8 888888888888 8 888888888888
Flatliners is a 1990 movie starring Kiefer Sutherland, Julia Roberts,
Kevin Bacon, William Baldwin and Oliver Platt as medical students
experimenting with near-death experiences. The movie is directed
by Joel Schumacher.

Screen Shots

Flatliners   1990 DVDrip oddball ENG preview 0

Flatliners   1990 DVDrip oddball ENG preview 1

Flatliners   1990 DVDrip oddball ENG preview 2

Flatliners   1990 DVDrip oddball ENG preview 3

Flatliners   1990 DVDrip oddball ENG preview 4

General
Complete name : Flatliners
Format : AVI
Format/Info : Audio Video Interleave
File size : 948 MiB
Duration : 1h 49mn
Overall bit rate : 1 210 Kbps

Video
Format : MPEG-4 Visual
Format profile : Streaming [email protected]
Format settings, BVOP : Yes
Format settings, QPel : No
Format settings, GMC : No warppoints
Format settings, Matrix : Default
Muxing mode : Packed bitstream
Codec ID : XVID
Codec ID/Hint : XviD
Duration : 1h 49mn
Bit rate : 1 006 Kbps
Width : 1 024 pixels
Height : 582 pixels
Display aspect ratio : 16/9
Frame rate : 29.970 fps
Resolution : 24 bits
Colorimetry : 4:2:0
Scan type : Progressive
Bits/(Pixel*Frame) : 0.056
Stream size : 788 MiB (83%)
Writing library : XviD 1.1.0 (UTC 2005-11-22)

Audio
Format : MPEG Audio
Format version : Version 1
Format profile : Layer 3
Codec ID : 55
Codec ID/Hint : MP3
Duration : 1h 49mn
Bit rate mode : Constant
Bit rate : 192 Kbps
Channel(s) : 2 channels
Sampling rate : 44.1 KHz
Resolution : 16 bits
Video delay : 26ms
Stream size : 151 MiB (16%)
Alignment : Split accross interleaves
Interleave, duration : 33 ms (1.00 video frame)
Title : Audio Stream
Writing library : LAME3.92

related torrents

Torrent name

health leech seeds Size
 


comments (0)

Main Menu