Action

Collateral Damage [2002] 1280x720 HD Mp4 H264 AAC 5 1 ch 3Li

  • Download 5x Faster
  • Download torrent
  • Direct Download
  • Rate this torrent +  |  -

Torrent info

Name:Collateral Damage [2002] 1280x720 HD Mp4 H264 AAC 5 1 ch 3Li

Total Size: 1.42 GB

Magnet: Magnet Link

Seeds: 0

Leechers: 0

Stream: Watch Full Movie @ Movie4u

Last Updated: 2017-09-01 13:38:18 (Update Now)

Torrent added: 2009-09-20 00:45:23



VPN For Torrents

Torrent Files List


Collateral Damage.mp4 (Size: 1.42 GB) (Files: 13)

 Collateral Damage.mp4

1.42 GB

 snapshot20090919113955.jpg

113.63 KB

 snapshot20090919115007.jpg

101.67 KB

 snapshot20090919114032.jpg

98.52 KB

 snapshot20090919115143.jpg

95.38 KB

 snapshot20090919113946.jpg

93.26 KB

 snapshot20090919114948.jpg

92.40 KB

 snapshot20090919114839.jpg

90.26 KB

 snapshot20090919115229.jpg

87.41 KB

 snapshot20090919114016.jpg

64.18 KB

 Collateral Damage.mp4.txt

5.04 KB

 Torrent downloaded from Demonoid.com.txt

0.05 KB

 tracked_by_h33t_com.txt

0.02 KB
 

Announce URL:

Torrent description

General
Complete name : Collateral Damage.mp4
Format : MPEG-4
Format profile : Base Media
Codec ID : isom
File size : 1.42 GiB
Duration : 1h 48mn
Overall bit rate : 1 871 Kbps
Encoded date : UTC 2009-09-18 09:02:56
Tagged date : UTC 2009-09-18 09:02:56

Video
ID : 1
Format : AVC
Format/Info : Advanced Video Codec
Format profile : [email protected]
Format settings, CABAC : Yes
Format settings, ReFrames : 4 frames
Codec ID : avc1
Codec ID/Info : Advanced Video Coding
Duration : 1h 48mn
Bit rate mode : Variable
Bit rate : 1 677 Kbps
Nominal bit rate : 1 700 Kbps
Maximum bit rate : 8 585 Kbps
Width : 1 280 pixels
Height : 720 pixels
Display aspect ratio : 16:9
Frame rate mode : Constant
Frame rate : 23.976 fps
Resolution : 24 bits
Colorimetry : 4:2:0
Scan type : Progressive
Bits/(Pixel*Frame) : 0.076
Stream size : 1.27 GiB (90%)
Title : Collateral Damage By 3Li
Writing library : x264 core 68

Audio
ID : 2
Format : AAC
Format/Info : Advanced Audio Codec
Format version : Version 4
Format profile : LC
Format settings, SBR : No
Codec ID : 40
Duration : 1h 48mn
Bit rate mode : Variable
Bit rate : 192 Kbps
Maximum bit rate : 329 Kbps
Channel(s) : 6 channels
Channel positions : Front: L C R, Rear: L R, LFE
Sampling rate : 48.0 KHz
Resolution : 16 bits
Stream size : 148 MiB (10%)
Title : Collateral Damage
Language : English
Encoded date : UTC 2009-09-18 09:03:21
Tagged date : UTC 2009-09-18 09:03:34

related torrents

Torrent name

health leech seeds Size
 


comments (0)

Main Menu

 

script data-cfasync="false" src="//d2ghscazvn398x.cloudfront.net/?cshgd=690275">