TV - Other

Banana Split Sat091909 PHILIPPINES tvrip (TAGALOG) [tukmol101]

  • Download 5x Faster
  • Download torrent
  • Direct Download
  • Rate this torrent +  |  -
Banana Split Sat091909 PHILIPPINES tvrip (TAGALOG) [tukmol101]

Anonymous and Free Direct Download 300GB+


Torrent info

Name:Banana Split Sat091909 PHILIPPINES tvrip (TAGALOG) [tukmol101]

Total Size: 276.03 MB

Magnet: Magnet Link

Seeds: 0

Leechers: 0

Stream: Watch Online @ Movie4u

Last Updated: 2015-09-27 16:17:49 (Update Now)

Torrent added: 2009-09-20 00:42:56



VPN For Torrents

Torrent Files List


Banana Split Isa Pang Hirit.avi (Size: 276.03 MB) (Files: 4)

 Banana Split Isa Pang Hirit.avi

268.85 MB

 sample.avi

7.19 MB

 Read Me.nfo

1.05 KB

 tracked_by_h33t_com.txt

0.02 KB
 

tracker

leech seeds
 

Torrent description

with sample.

this episode are recaps of past episodes in preparation for new season
Banana Split
The new season of Banana Split welcomes a new barkada. Joining sexy and pretty girls Angelica Panganiban,
, Princess Ryan, and RR Enriquez are the wacky trio of John Prats, Jayson Gainza, and Zanjoe
Marudo. Also taking comedy to the next level is the hilarious tandem of Pokwang and Pooh. Watch out for new
sketches, segments, and spoofs that will surely make your
Saturday nights hilarious as ever.

Banana Split Sat091909 PHILIPPINES tvrip (TAGALOG) [tukmol101] preview 0

CHARACTERS:
[color=Red]Angelica Panganiban[/color] has evolved from an adorable child star to one of the most acclaimed young
actresses of today.

[color=Red]Princess Ryan[/color] ruled the dance floor in U Can Dance Version 2. She also starred with Cristine Reyes in Eva Fonda.

[color=Red]RR Enriquez[/color] rose from the ranks of the ASF Dancers to become one of the co-hosts of hit noontime variety
show Wowowee.

John Prats started out as a child star in Ang TV and became one of Star Magic’s hot young leading men.
He is a mainstay of ASAP, known as the Dancefloor Dynamite. John will also star in the afternoon drama
Precious Hearts Romances: Bud Brothers.

Zanjoe Marudo is considered one of the hottest leading men of today. He starred with Anne Curtis in the
fantaserye Dyosa and will soon play love triangle to KC Concepcion and Piolo Pascual in Lovers In Paris.

Jayson Gainza entered showbiz after becoming a runner up in the maiden season of Pinoy Big Brother.
He went on to star in ABS-CBN comedy programs Aalog Alog and Parekoy. Jayson currently co-hosts the travel
show Trip Na Trip.

Pokwang is of one of the most bankable female comedians in the industry. She currently co-hosts Wowowee and
has just released an album under Star Records.

Pooh shot to fame because of his Manny Pacquiao impersonation. A resident stand up comic in various comedy
bars, Pooh had also appeared in several ABS-CBN shows like Pangarap Na Bituin and I Love Betty La Fea.
General
Complete name : Banana Split Isa Pang Hirit.avi
Format : AVI
Format/Info : Audio Video Interleave
File size : 269 MiB
Duration : 29mn 59s
Overall bit rate : 1 253 Kbps
Writing application : VirtualDubMod 1.5.4.1 (build 2178/release)
Writing library : VirtualDubMod build 2178/release

Video
ID : 0
Format : MPEG-4 Visual
Format profile : [email protected]
Format settings, BVOP : Yes
Format settings, QPel : No
Format settings, GMC : No warppoints
Format settings, Matrix : Default (H.263)
Muxing mode : Packed bitstream
Codec ID : XVID
Codec ID/Hint : XviD
Duration : 29mn 59s
Bit rate : 1 134 Kbps
Width : 592 pixels
Height : 448 pixels
Display aspect ratio : 4:3
Frame rate : 29.970 fps
Resolution : 24 bits
Colorimetry : 4:2:0
Scan type : Progressive
Bits/(Pixel*Frame) : 0.143
Stream size : 243 MiB (90%)
Writing library : XviD 1.2.1 (UTC 2008-12-04)

Audio
ID : 1
Format : MPEG Audio
Format version : Version 1
Format profile : Layer 3
Codec ID : 55
Codec ID/Hint : MP3
Duration : 29mn 59s
Bit rate mode : Variable
Bit rate : 106 Kbps
Nominal bit rate : 128 Kbps
Channel(s) : 2 channels
Sampling rate : 48.0 KHz
Resolution : 16 bits
Stream size : 22.7 MiB (8%)
Alignment : Aligned on interleaves
Interleave, duration : 24 ms (0.72 video frame)
Interleave, preload duration : 497 ms
Writing library : LAME3.98r
Encoding settings : -m j -V 4 -q 2 -lowpass 17 --abr 128

related torrents

Torrent name

health leech seeds Size
 


comments (0)

Main Menu