Other

Wanted High Quality DVDrip com

  • Download 5x Faster
  • Download torrent
  • Direct Download
  • Rate this torrent +  |  -
Wanted High Quality DVDrip com

Anonymous and Free Direct Download 300GB+


Torrent info

Name:Wanted High Quality DVDrip com

Total Size: 696.29 MB

Magnet: Magnet Link

Seeds: 1

Leechers: 1

Stream: Watch Online @ Movie4u

Last Updated: 2010-10-06 03:38:28 (Update Now)

Torrent added: 2009-09-20 00:42:08



VPN For Torrents

Torrent Files List


Wanted - High Quality DVDrip .avi (Size: 696.29 MB) (Files: 3)

 Wanted - High Quality DVDrip .avi

696.29 MB

 Send free SMS.url

0.07 KB

 Wanted - Readme.txt

0.06 KB
 

Announce URL: http://open.tracker.thepiratebay.org/announce

Torrent description

General
Format : AVI
Format/Info : Audio Video Interleave
File size : 696 MiB
Duration : 2h 25mn
Overall bit rate : 667 Kbps
Writing application : VirtualDubMod 1.5.10.2 (build 2540/release)
Writing library : VirtualDubMod build 2540/release

Video
Format : MPEG-4 Visual
Format profile : Streaming [email protected]
Format settings, BVOP : Yes
Format settings, QPel : No
Format settings, GMC : No warppoints
Format settings, Matrix : Custom
Codec ID : XVID
Codec ID/Hint : XviD
Duration : 2h 25mn
Bit rate : 566 Kbps
Width : 624 pixels
Height : 272 pixels
Display aspect ratio : 2.25
Frame rate : 23.976 fps
Resolution : 24 bits
Colorimetry : 4:2:0
Scan type : Progressive
Bits/(Pixel*Frame) : 0.139
Stream size : 590 MiB (85%)
Writing library : XviD 1.2.1 (UTC 2008-12-04)

Audio
Format : MPEG Audio
Format version : Version 1
Format profile : Layer 3
Codec ID : 55
Codec ID/Hint : MP3
Duration : 2h 25mn
Bit rate mode : Variable
Bit rate : 91.6 Kbps
Minimum bit rate : 96.0 Kbps
Channel(s) : 2 channels
Sampling rate : 32.0 KHz
Resolution : 16 bits
Stream size : 95.6 MiB (14%)
Alignment : Aligned on interleaves
Interleave, duration : 36 ms (0.86 video frame)
Interleave, preload duration : 556 ms
Writing library : LAME3.98r
Encoding settings : ABR

SS:Wanted   High Quality DVDrip  com preview 0

related torrents

Torrent name

health leech seeds Size
 


comments (0)

Main Menu