Concerts

George Lopez (HBO Special) Tall, Dark & Chicano MP4 (Demonoid com)

  • Download 5x Faster
  • Download torrent
  • Direct Download
  • Rate this torrent +  |  -


Torrent info

Name:George Lopez (HBO Special) Tall, Dark & Chicano MP4 (Demonoid com)

Total Size: 748.45 MB

Magnet: Magnet Link

Seeds: 0

Leechers: 0

Stream: Watch Online @ Movie4u

Last Updated: 2016-01-12 11:35:58 (Update Now)

Torrent added: 2009-09-20 00:39:55



VPN For Torrents

Torrent Files List


George Lopez (HBO Special).mp4 (Size: 748.45 MB) (Files: 2)

 George Lopez (HBO Special).mp4

748.45 MB

 Torrent_downloaded_from_Demonoid.com.txt

0.05 KB
 

tracker

leech seeds
 

Torrent description

One of the premier comedic talents in the entertainment industry, George Lopez stars in his second HBO solo special. George Lopez: Tall, Dark & Chicano is a live stand-up special performed in front of a packed arena crowd at the AT&T Center in San Antonio, TX.

One of the most popular comedic actors in the world, Lopez's standup comedy is a sell-out attraction from coast to coast. Well-known as the co-creator, writer, producer and star of the hit sitcom George Lopez, Lopez has hosted the Latin Emmy® Awards and co-hosted the Emmys®. He's also a celebrated comedy recording artist, writer, and radio show host in his home town of Los Angeles.

Format : MPEG-4
Format profile : Base Media / Version 2
Codec ID : mp42
File size : 748 MiB
Duration : 1h 24mn
Overall bit rate : 1 239 Kbps
Encoded date : UTC 2009-08-09 06:00:02
Tagged date : UTC 2009-08-09 08:02:11


Video
ID : 1
Format : AVC
Format/Info : Advanced Video Codec
Format profile : [email protected]
Format settings, CABAC : Yes
Format settings, ReFrames : 2 frames
Codec ID : avc1
Codec ID/Info : Advanced Video Coding
Duration : 1h 24mn
Bit rate mode : Variable
Bit rate : 1 100 Kbps
Width : 640 pixels
Height : 368 pixels
Display aspect ratio : 16:9
Frame rate mode : Variable
Frame rate : 29.970 fps
Minimum frame rate : 29.963 fps
Maximum frame rate : 29.981 fps
Resolution : 24 bits
Colorimetry : 4:2:0
Scan type : Progressive
Bits/(Pixel*Frame) : 0.156
Stream size : 668 MiB (89%)
Writing library : x264 core 65
Encoded date : UTC 2009-08-09 06:00:02
Tagged date : UTC 2009-08-09 08:02:11
colour_primaries : BT.709-5, BT.1361, IEC 61966-2-4, SMPTE RP177
transfer_characteristics : BT.709-5, BT.1361
matrix_coefficients : BT.709-5, BT.1361, IEC 61966-2-4 709, SMPTE RP177

Audio
ID : 2
Format : AAC
Format/Info : Advanced Audio Codec
Format version : Version 4
Format profile : LC
Format settings, SBR : No
Codec ID : 40
Duration : 1h 24mn
Bit rate mode : Variable
Bit rate : 128 Kbps
Maximum bit rate : 154 Kbps
Channel(s) : 2 channels
Channel positions : L R
Sampling rate : 48.0 KHz
Resolution : 16 bits
Stream size : 77.3 MiB (10%)

related torrents

Torrent name

health leech seeds Size
 


comments (0)

Main Menu