Drama

Away We Go 2009 BluRayRip 720p 5_1_ch AVCHD h264 AAC subs 1h38m mp4 +Sample [RipMinion]

  • Download 5x Faster
  • Download torrent
  • Direct Download
  • Rate this torrent +  |  -

Torrent info

Name:Away We Go 2009 BluRayRip 720p 5_1_ch AVCHD h264 AAC subs 1h38m mp4 +Sample [RipMinion]

Total Size: 483.92 MB

Magnet: Magnet Link

Seeds: 0

Leechers: 0

Stream: Watch Online @ Movie4u

Last Updated: 2015-10-18 09:24:03 (Update Now)

Torrent added: 2009-09-20 00:34:35





Torrent Files List


Away We Go 2009 (imdb.org tt1176740).URL (Size: 483.92 MB) (Files: 17)

 Away We Go 2009 (imdb.org tt1176740).URL

0.06 KB

 Away We Go 2009 (poster).jpg

46.58 KB

 Away We Go 2009 BluRayRip - SAMPLE.mkv

4.34 MB

 Away We Go 2009 BluRayRip - text info.nfo

5.24 KB

 Away We Go 2009 BluRayRip - text info.txt

5.24 KB

 Away We Go 2009 BluRayRip 720p 5_1_ch AVCHD h264 AAC subs 1h38m.mp4

479.42 MB

 Away We Go 2009 BluRayRip 720p 5_1_ch AVCHD h264 AAC subs 1h38m.srt

103.20 KB

 trackers

  tracked_by_1337x.org.txt

0.02 KB

  tracked_by_Bittorrent.am.txt

0.03 KB

  tracked_by_Demonoid.com.txt

0.05 KB

  tracked_by_h33t_com.txt

0.02 KB

  tracked_by_hexagon.cc.txt

0.02 KB

  tracked_by_OpenBitTorrent.com.txt

0.03 KB

  tracked_by_PublicBT.com.txt

0.03 KB

 ~ RipMinion ~ Rare Torrents (h33t.com 148823).URL

0.07 KB

 ~ RipMinion ~ Rare Torrents (www.1337x.org user_51839).URL

0.08 KB

 ~Rare improved-cut movies (fanedit.org).URL

0.08 KB
 

tracker

leech seeds
 

Torrent description

.
Away We Go 2009 BluRayRip 720p 5.1 ch AVCHD h264 AAC subs 1h38m .mp4

I sought a reasonably-sized 720p AVCHD Compliant (BluRay/PS3/XBOX-ready) torrent of 'Away We Go 2009' movie for the lady, but no luck. So, I created one, for our media center and to share.


Details, Ratings, Reviews : http://www.imdb.com/title/tt1176740/
Picture of Cover : Away We Go 2009 BluRayRip 720p 5_1_ch AVCHD h264 AAC subs 1h38m mp4 +Sample [RipMinion] preview 0
~ RipMinion ~ Rare Torrents : http://h33t.com/userdetails.php?id=148823
~ RipMinion ~ Rare Torrents : http://1337x.org/user_51839
Azureus/Vuze Magnet Link : magnet:?xt=urn:btih:3DJ5ZSJVM3OKI7TXRL2WZK25CA2T4ZOT


Encoding 'inspired by secretmyth & newartriot' for an Optimal blend of Compression, Quality, and AVCHD Compliancy (BluRay/PS3/XBOX-ready).


General
Complete name : Away We Go 2009 BluRayRip 720p 5.1 ch AVCHD h264 AAC subs 1h38m .mp4
Format : MPEG-4
Format profile : Base Media
Codec ID : isom
File size : 479 MiB
Duration : 1h 38mn
Overall bit rate : 686 Kbps

Video
AVCHD Compliant : Yes, BluRay/PS3/XBOX ready; no re-encode!
Format : AVC (h264)
Format/Info : Advanced Video Codec
Format profile : [email protected]
Format settings, CABAC : Yes
Format settings, ReFrames : 3 frames
Codec ID : avc1
Codec ID/Info : Advanced Video Coding
Bit rate mode : Variable
Bit rate : 514 Kbps (-crf 26)
Maximum bit rate : 5 162 Kbps
Width : 1 280 pixels
Height : 720 pixels (true 720p)
Display aspect ratio : 16/9
Frame rate mode : Constant
Frame rate : 23.976 fps
Standard : NTSC
Resolution : 24 bits
Colorimetry : 4:2:0
Scan type : Progressive
Bits/(Pixel*Frame) : 0.023
Stream size : 359 MiB (75%)
Writing library : x264 core 75 r1259M dd026f2
Encoding settings : cabac=1 / ref=3 / deblock=1:-1:0 / analyse=0x3:0x133 / me=umh / subme=9 / psy=1 / psy_rd=1.0:0.2 / mixed_ref=1 / me_range=64 / chroma_me=1 / trellis=2 / 8x8dct=1 / cqm=0 / deadzone=21,11 / chroma_qp_offset=-3 / threads=6 / nr=0 / decimate=1 / mbaff=0 / bframes=3 / b_pyramid=0 / b_adapt=2 / b_bias=0 / direct=3 / wpredb=1 / keyint=240 / keyint_min=24 / scenecut=40 / rc_lookahead=40 / rc=crf / mbtree=1 / crf=26.0 / qcomp=0.60 / qpmin=10 / qpmax=51 / qpstep=4 / vbv_maxrate=13000 / vbv_bufsize=13000 / ip_ratio=1.40 / aq=1:1.00

Audio
Format : AAC, Nero AAC Encoder v1.3.3.0
Format/Info : Advanced Audio Codec
Format version : Version 4
Format profile : LC (AAC-HE{v1} extension)
Format settings, SBR : Yes
Format settings, PS : No
Codec ID : 40
Bit rate mode : Variable
Bit rate : 169 Kbps (-he -q 0.25 = ~transparent)
Maximum bit rate : 218 Kbps
Channel(s) : 6 channels (5.1 Surround Sound)
Channel positions : Front: L C R, Rear: L R, LFE
Sampling rate : 48.0 KHz
Resolution : 16 bits
Stream size : 118 MiB (25%)
Language : English

Subtitles : English
Format : Timed text
Codec ID : tx3g
Bit rate : 79 bps (vbr)
Stream size : 52.3 KiB (0%)


Encode process details / FAQ : http://ripminion.pastebay.com/52245
Subtitle Search Engine 1 : http://www.opensubtitles.org/
Subtitle Search Engine 2 : http://subscene.com/filmsearch.aspx
Subtitle Search Engine 3 : http://www.subtitlesource.org/
More rare improved-cut movies : http://fanedit.org/ then http://fanedit.info/
~ RipMinion ~ Rare Torrents : http://h33t.com/userdetails.php?id=148823
~ RipMinion ~ Rare Torrents : http://1337x.org/user_51839


Playback issues? Here's the easy fix: http://www.videolan.org/vlc/

For fast & easy Convert-to-AVCHD, Burn, and Play on BluRay/PS3/XBOX from a variety of disc types (DVD-R, DVD+R_DL, BD-R, BD-RE, etc.), I recommend multiAVCHD freeware {link follows}. It can auto-generate a slick customizable 'iTunes-style' slide menu for multiple movies and burn all to a single disc! Or, if desired, it can span across several discs. 100% AVCHD Compliant Video, such as this, is quickly made ready (Non-compliant video is automatically re-encoded thus reducing quality, wasting time, and bloating file size):

http://www.videohelp.com/tools/multiAVCHD
http://ImgBurn.com/


For fast & easy Convert-to-DVD, Burn, and Play on any DVD Player from DVD-R or DVD+R_DL media, I recommend 'ConvertXtoDVD' software; either buy or search for the Torrent.


Please feel free to post constructive feedback, questions, comments, etc.

I really appreciate you helping seed at any capacity you can spare.

Enjoy the show,
~ RipMinion ~

.

related torrents

Torrent name

health leech seeds Size
 

comments (0)

Main Menu