TV - Other

MMK18 Bisekleta Sat091909 PHILIPPINES tvrip (TAGALOG) [tukmol101]

  • Download 5x Faster
  • Download torrent
  • Direct Download
  • Rate this torrent +  |  -
MMK18 Bisekleta Sat091909 PHILIPPINES tvrip (TAGALOG) [tukmol101]

Free and Direct Download with Usenet.nl 300GB+ free


Torrent info

Name:MMK18 Bisekleta Sat091909 PHILIPPINES tvrip (TAGALOG) [tukmol101]

Total Size: 498.81 MB

Magnet: Magnet Link

Seeds: 0

Leechers: 0

Stream: Watch Online @ Movie4u

Last Updated: 2015-09-27 16:18:36 (Update Now)

Torrent added: 2009-09-19 23:46:44





Torrent Files List


Bisekleta.avi (Size: 498.81 MB) (Files: 4)

 Bisekleta.avi

489.34 MB

 sample.avi

9.47 MB

 Read Me.nfo

1.05 KB

 tracked_by_h33t_com.txt

0.02 KB
 

tracker

leech seeds
 

Torrent description

Episode 39 | September 19, 2009
Ronaldo Valdez and Mika dela Cruz rediscover the value of family ties
The September 19 episode of Maalaala Mo Kaya features the dramatic prowess
of veteran actor Ronaldo Valdez and rising child star Mika dela Cruz in a
heart-warming story about family. Mika plays the role of young Chen who has
always been an avid fan of Philippine folklore because it was what her Lolo Uge
(Valdez) instilled in her. But unlike other kids who eventually outgrow their
fascination with mythical creatures such as dwarves and fairies, Chen believes
that they have the power to cure her mom’s cancer. But when her mom suddenly dies,
she begins to hate her grandfather for telling her the stories which she now sees as lies.
Will she ever forgive Lolo Uge for encouraging her to hold on to her fantasies?
Catch Maalaala Mo Kaya right after The Singing Bee on ABS-CBN.

General
Complete name : Bisekleta.avi
Format : AVI
Format/Info : Audio Video Interleave
File size : 489 MiB
Duration : 53mn 27s
Overall bit rate : 1 280 Kbps
Writing application : VirtualDubMod 1.5.4.1 (build 2178/release)
Writing library : VirtualDubMod build 2178/release

Video
ID : 0
Format : MPEG-4 Visual
Format profile : [email protected]
Format settings, BVOP : Yes
Format settings, QPel : No
Format settings, GMC : No warppoints
Format settings, Matrix : Default (H.263)
Muxing mode : Packed bitstream
Codec ID : XVID
Codec ID/Hint : XviD
Duration : 53mn 27s
Bit rate : 1 163 Kbps
Width : 592 pixels
Height : 336 pixels
Display aspect ratio : 16:9
Frame rate : 29.970 fps
Resolution : 24 bits
Colorimetry : 4:2:0
Scan type : Progressive
Bits/(Pixel*Frame) : 0.195
Stream size : 445 MiB (91%)
Writing library : XviD 1.2.1 (UTC 2008-12-04)

Audio
ID : 1
Format : MPEG Audio
Format version : Version 1
Format profile : Layer 3
Codec ID : 55
Codec ID/Hint : MP3
Duration : 53mn 27s
Bit rate mode : Variable
Bit rate : 103 Kbps
Nominal bit rate : 128 Kbps
Channel(s) : 2 channels
Sampling rate : 48.0 KHz
Resolution : 16 bits
Stream size : 39.4 MiB (8%)
Alignment : Aligned on interleaves
Interleave, duration : 24 ms (0.72 video frame)
Interleave, preload duration : 499 ms
Writing library : LAME3.98r
Encoding settings : -m j -V 4 -q 2 -lowpass 17 --abr 128

related torrents

Torrent name

health leech seeds Size
 

comments (0)

Main Menu