Other

The Suite Life On Deck S02E06 Family Thais 720p HDTV x264 DiSNEY

  • Download 5x Faster
  • Download torrent
  • Direct Download
  • Rate this torrent +  |  -
The Suite Life On Deck S02E06 Family Thais 720p HDTV x264 DiSNEY

Anonymous and Free Direct Download 300GB+


Torrent info

Name:The Suite Life On Deck S02E06 Family Thais 720p HDTV x264 DiSNEY

Total Size: 550.09 MB

Magnet: Magnet Link

Seeds: 0

Leechers: 1

Stream: Watch Online @ Movie4u

Last Updated: 2011-01-07 18:46:37 (Update Now)

Torrent added: 2009-09-19 23:46:37



VPN For Torrents

Torrent Files List


the.suite.life.on.deck.S02E06.family.thais.720p.hdtv.x264-disney.nfo (Size: 550.09 MB) (Files: 14)

 the.suite.life.on.deck.S02E06.family.thais.720p.hdtv.x264-disney.nfo

2.63 KB

 the.suite.life.on.deck.S02E06.family.thais.720p.hdtv.x264-disney.r00

47.68 MB

 the.suite.life.on.deck.S02E06.family.thais.720p.hdtv.x264-disney.r01

47.68 MB

 the.suite.life.on.deck.S02E06.family.thais.720p.hdtv.x264-disney.r02

47.68 MB

 the.suite.life.on.deck.S02E06.family.thais.720p.hdtv.x264-disney.r03

47.68 MB

 the.suite.life.on.deck.S02E06.family.thais.720p.hdtv.x264-disney.r04

47.68 MB

 the.suite.life.on.deck.S02E06.family.thais.720p.hdtv.x264-disney.r05

47.68 MB

 the.suite.life.on.deck.S02E06.family.thais.720p.hdtv.x264-disney.r06

47.68 MB

 the.suite.life.on.deck.S02E06.family.thais.720p.hdtv.x264-disney.r07

47.68 MB

 the.suite.life.on.deck.S02E06.family.thais.720p.hdtv.x264-disney.r08

47.68 MB

 the.suite.life.on.deck.S02E06.family.thais.720p.hdtv.x264-disney.r09

47.68 MB

 the.suite.life.on.deck.S02E06.family.thais.720p.hdtv.x264-disney.r10

25.56 MB

 the.suite.life.on.deck.S02E06.family.thais.720p.hdtv.x264-disney.rar

47.68 MB

 the.suite.life.on.deck.S02E06.family.thais.720p.hdtv.x264-disney.sfv

0.85 KB
 

Announce URL: http://tracker.publicbt.com/announce

Torrent description

The.Suite.Life.On.Deck.S02E06.Family.Thais.720p.HDTV.x264-DiSNEY

General
Complete name : the.suite.life.on.deck.S02E06.family.thais.720p.hdtv.x264-disney.mkv
Format : Matroska
File size : 550 MiB
Duration : 22mn 17s
Overall bit rate : 3 450 Kbps
Encoded date : UTC 2009-09-19 16:37:45
Writing application : mkvmerge v2.9.7 ('Tenderness') built on Jul 1 2009 18:43:35
Writing library : libebml v0.7.7 + libmatroska v0.8.1

Video
ID : 1
Format : AVC
Format/Info : Advanced Video Codec
Format profile : [email protected]
Format settings, CABAC : Yes
Format settings, ReFrames : 3 frames
Muxing mode : Container [email protected]
Codec ID : V_MPEG4/ISO/AVC
Duration : 22mn 16s
Bit rate : 2 997 Kbps
Nominal bit rate : 3 064 Kbps
Width : 1 280 pixels
Height : 720 pixels
Display aspect ratio : 16:9
Frame rate : 23.976 fps
Resolution : 24 bits
Colorimetry : 4:2:0
Scan type : Progressive
Bits/(Pixel*Frame) : 0.136
Stream size : 477 MiB (87%)
Writing library : x264 core 72 r1222 d0ee6f8
Encoding settings : cabac=1 / ref=3 / deblock=1:-2:-1 / analyse=0x3:0x113 / me=hex / subme=7 / psy=1 / psy_rd=1.0:0.0 / mixed_ref=1 / me_range=16 / chroma_me=1 / trellis=1 / 8x8dct=1 / cqm=0 / deadzone=21,11 / chroma_qp_offset=-2 / threads=4 / nr=0 / decimate=1 / mbaff=0 / bframes=3 / b_pyramid=0 / b_adapt=1 / b_bias=0 / direct=1 / wpredb=1 / keyint=250 / keyint_min=25 / scenecut=40 / rc_lookahead=40 / rc=2pass / mbtree=1 / bitrate=3064 / ratetol=1.0 / qcomp=0.60 / qpmin=10 / qpmax=51 / qpstep=4 / cplxblur=20.0 / qblur=0.5 / ip_ratio=1.40 / aq=1:1.00

Audio
ID : 2
Format : AC-3
Format/Info : Audio Coding 3
Codec ID : A_AC3
Duration : 22mn 17s
Bit rate mode : Constant
Bit rate : 384 Kbps
Channel(s) : 6 channels
Channel positions : Front: L C R, Surround: L R, LFE
Sampling rate : 48.0 KHz
Stream size : 61.2 MiB (11%)
Language : English

related torrents

Torrent name

health leech seeds Size
 


comments (0)

Main Menu