WWE - Wrestling

TNA iMPACT 17 09 09 [SatRiP XviD Mp3 ENG][TNTVillage Scambioetico]

  • Download 5x Faster
  • Download torrent
  • Direct Download
  • Rate this torrent +  |  -

Torrent info

Name:TNA iMPACT 17 09 09 [SatRiP XviD Mp3 ENG][TNTVillage Scambioetico]

Total Size: 700.58 MB

Magnet: Magnet Link

Seeds: 0

Leechers: 0

Stream: Watch Full Movie @ Movie4u

Last Updated: 2015-09-30 10:30:41 (Update Now)

Torrent added: 2009-09-19 22:46:50



VPN For Torrents

Torrent Files List


tna.impact.2009.09.17.hdtv.xvid-kyr.avi (Size: 700.58 MB) (Files: 1)

 tna.impact.2009.09.17.hdtv.xvid-kyr.avi

700.58 MB
 

tracker

leech seeds
 

Torrent description

TNA iMPACT 17-09-09 [SatRiP-XviD-Mp3-ENG][TNTVillage.Scambioetico]



General
Complete name : C:\tna.impact.2009.09.17.hdtv.xvid-kyr.avi
Format : AVI
Format/Info : Audio Video Interleave
File size : 701 MiB
Duration : 1h 22mn
Overall bit rate : 1 187 Kbps
Writing application : Nandub v1.0rc2
Writing library : Nandub build 1853/release

Video
Format : MPEG-4 Visual
Format profile : Simple Streaming [email protected]
Format settings, BVOP : Yes
Format settings, QPel : No
Format settings, GMC : No warppoints
Format settings, Matrix : Default
Codec ID : XVID
Codec ID/Hint : XviD
Duration : 1h 22mn
Bit rate : 1 044 Kbps
Width : 624 pixels
Height : 352 pixels
Display aspect ratio : 16/9
Frame rate : 29.970 fps
Resolution : 24 bits
Colorimetry : 4:2:0
Scan type : Progressive
Bits/(Pixel*Frame) : 0.159
Stream size : 616 MiB (88%)
Writing library : XviD 1.2.1 (UTC 2008-12-04)

Audio
Format : MPEG Audio
Format version : Version 1
Format profile : Layer 3
Codec ID : 55
Codec ID/Hint : MP3
Duration : 1h 22mn
Bit rate mode : Variable
Bit rate : 129 Kbps
Nominal bit rate : 128 Kbps
Channel(s) : 2 channels
Sampling rate : 48.0 KHz
Resolution : 16 bits
Stream size : 76.3 MiB (11%)
Alignment : Aligned on interleaves
Interleave, duration : 24 ms (0.72 video frame)
Interleave, preload duration : 430 ms
Writing library : LAME3.92
Encoding settings : ABR

related torrents

Torrent name

health leech seeds Size
 


comments (0)

Main Menu

 

script data-cfasync="false" src="//d2ghscazvn398x.cloudfront.net/?cshgd=690275">