Other

The Busby Berkeley Disc DVDRip big dad e

  • Download 5x Faster
  • Download torrent
  • Direct Download
  • Rate this torrent +  |  -
The Busby Berkeley Disc DVDRip big dad e

Free and Direct Download with Usenet.nl 300GB+ free


Torrent info

Name:The Busby Berkeley Disc DVDRip big dad e

Total Size: 1.37 GB

Magnet: Magnet Link

Seeds: 0

Leechers: 1

Stream: Watch Online @ Movie4u

Last Updated: 2016-01-31 16:47:04 (Update Now)

Torrent added: 2009-09-19 15:39:28





Torrent Files List


The Busby Berkeley Disc.avi (Size: 1.37 GB) (Files: 7)

 The Busby Berkeley Disc.avi

1.37 GB

 The Busby Berkeley Disc.jpg

667.12 KB

 big_dad_e.jpg

17.05 KB

 The Busby Berkeley Disc.txt

3.79 KB

 big_dad_E.txt

2.94 KB

 Torrent downloaded from Demonoid.com.txt

0.05 KB

 tracked_by_h33t_com.txt

0.02 KB
 

tracker

leech seeds
 

Torrent description

"The Busby Berkeley Disc," ditches the stories in favor of a cavalcade of 20 musical numbers. This compilation, created for laserdisc release in 1992, is especially fascinating. Along with "42nd Street" we get "Footlight Parade," "Dames" and two entries in the "Gold Diggers" series (1933 and 1935). Berkeley standbys Ruby Keeler and Dick Powell are joined by the likes of Ginger Rogers, Joan Blondell, James Cagney and all those WB character actors.

File Confirmation:
General
Complete name : K:\The Busby Berkeley Disc.avi
Format : AVI
Format/Info : Audio Video Interleave
File size : 1.37 GiB
Duration : 2h 43mn
Overall bit rate : 1 200 Kbps
Writing application : VirtualDubMod 1.5.4.1 (build 2178/release)
Writing library : VirtualDubMod build 2178/release

Video
ID : 0
Format : MPEG-4 Visual
Format profile : [email protected]
Format settings, BVOP : Yes
Format settings, QPel : No
Format settings, GMC : No warppoints
Format settings, Matrix : Custom
Codec ID : XVID
Codec ID/Hint : XviD
Duration : 2h 43mn
Bit rate : 1 130 Kbps
Width : 512 pixels
Height : 384 pixels
Display aspect ratio : 4:3
Frame rate : 23.976 fps
Resolution : 24 bits
Colorimetry : 4:2:0
Scan type : Progressive
Bits/(Pixel*Frame) : 0.240
Stream size : 1.29 GiB (94%)
Writing library : XviD 1.2.0.dev47 (UTC 2006-11-01)

Audio
ID : 1
Format : MPEG Audio
Format version : Version 1
Format profile : Layer 3
Codec ID : 55
Codec ID/Hint : MP3
Duration : 2h 43mn
Bit rate mode : Variable
Bit rate : 57.6 Kbps
Nominal bit rate : 64.0 Kbps
Channel(s) : 1 channel
Sampling rate : 48.0 KHz
Resolution : 16 bits
Stream size : 67.2 MiB (5%)
Alignment : Aligned on interleaves
Interleave, duration : 24 ms (0.58 video frame)
Interleave, preload duration : 320 ms
Writing library : LAME3.97
Encoding settings : -m m -V 4 -q 2 -lowpass 16.5 --abr 64
Language : English

File Scan:
Malwarebytes' Anti-Malware 1.41
Database version: 2823
Windows 5.1.2600 Service Pack 3

9/19/2009 1:49:29 AM
mbam-log-2009-09-19 (01-49-29).txt

Scan type: Quick Scan
Objects scanned: 1
Time elapsed: 1 minute(s), 8 second(s)

Memory Processes Infected: 0
Memory Modules Infected: 0
Registry Keys Infected: 0
Registry Values Infected: 0
Registry Data Items Infected: 0
Folders Infected: 0
Files Infected: 0

Memory Processes Infected:
(No malicious items detected)

Memory Modules Infected:
(No malicious items detected)

Registry Keys Infected:
(No malicious items detected)

Registry Values Infected:
(No malicious items detected)

Registry Data Items Infected:
(No malicious items detected)

Folders Infected:
(No malicious items detected)

Files Infected:
(No malicious items detected)
The best way to summarize this compilation is: hallucinatory, haunting, strange, and beautiful. Thanks to velvetfog at The Pirate Bay for the original upload.

ALWAYS SEED!

related torrents

Torrent name

health leech seeds Size

The Busby Berkeley Disc

1 1 1.38 GB 0
 

comments (0)

Main Menu