Metal

Guilt Machine On This Perfect Day (2009) EAC FLAC

  • Download 5x Faster
  • Download torrent
  • Direct Download
  • Rate this torrent +  |  -
Guilt Machine On This Perfect Day (2009) EAC FLAC

Free and Direct Download with Usenet.nl 300GB+ free


Torrent info

Name:Guilt Machine On This Perfect Day (2009) EAC FLAC

Total Size: 399.50 MB

Magnet: Magnet Link

Seeds: 0

Leechers: 0

Stream: Watch Online @ Movie4u

Last Updated: 2010-12-27 16:54:01 (Update Now)

Torrent added: 2009-09-19 06:43:26





Torrent Files List


00. Guilt Machine.log (Size: 399.50 MB) (Files: 8)

 00. Guilt Machine.log

3.25 KB

 folder.jpg

119.07 KB

 05. Ayreon - Over.flac

40.46 MB

 02. Ayreon - Leland Street.flac

53.74 MB

 04. Ayreon - Season Of Denial.flac

72.66 MB

 06. Ayreon - Perfection.flac

72.92 MB

 03. Ayreon - Green And Cream.flac

78.27 MB

 01. Ayreon - Twisted Coil.flac

81.34 MB
 

Announce URL: http://open.tracker.thepiratebay.org/announce

Torrent description

Guilt Machine - On This Perfect Day (2009) EAC FLAC



Exact Audio Copy V0.99 prebeta 5 from 4. May 2009

EAC extraction logfile from 4. September 2009, 17:54

Ayreon / Guilt Machine

Used drive : MATSHITADVD-RAM UJ-850S Adapter: 2 ID: 0

Read mode : Secure
Utilize accurate stream : Yes
Defeat audio cache : No
Make use of C2 pointers : Yes

Read offset correction : 102
Overread into Lead-In and Lead-Out : No
Fill up missing offset samples with silence : Yes
Delete leading and trailing silent blocks : No
Null samples used in CRC calculations : No
Used interface : Native Win32 interface for Win NT & 2000
Gap handling : Appended to previous track

Used output format : User Defined Encoder
Selected bitrate : 224 kBit/s
Quality : High
Add ID3 tag : No
Command line compressor : C:\Program Files\Exact Audio Copy\Flac\flac.exe
Additional command line options : -8 -V -T "artist=%a" -T "title=%t" -T "album=%g" -T "date=%y" -T "tracknumber=%n" -T "genre=%m" -T "comment=LEO Lossless FLAC by Ripmaster TS " %s


TOC of the extracted CD

Track | Start | Length | Start sector | End sector
---------------------------------------------------------
1 | 0:00.00 | 11:43.22 | 0 | 52746
2 | 11:43.22 | 8:03.31 | 52747 | 89002
3 | 19:46.53 | 10:32.55 | 89003 | 136457
4 | 30:19.33 | 10:22.01 | 136458 | 183108
5 | 40:41.34 | 6:11.67 | 183109 | 211000
6 | 46:53.26 | 10:46.32 | 211001 | 259482


Track 1

Filename D:\01. Ayreon - Twisted Coil.wav

Pre-gap length 0:00:02.00

Peak level 94.3 %
Track quality 100.0 %
Test CRC FC126D69
Copy CRC FC126D69
Track not present in AccurateRip database
Copy OK

Track 2

Filename D:\02. Ayreon - Leland Street.wav

Peak level 94.3 %
Track quality 100.0 %
Test CRC BA940B07
Copy CRC BA940B07
Track not present in AccurateRip database
Copy OK

Track 3

Filename D:\03. Ayreon - Green And Cream.wav

Pre-gap length 0:00:01.66

Peak level 94.3 %
Track quality 100.0 %
Test CRC D45FC85A
Copy CRC D45FC85A
Track not present in AccurateRip database
Copy OK

Track 4

Filename D:\04. Ayreon - Season Of Denial.wav

Pre-gap length 0:00:00.42

Peak level 94.3 %
Track quality 100.0 %
Test CRC 32DCDEAC
Copy CRC 32DCDEAC
Track not present in AccurateRip database
Copy OK

Track 5

Filename D:\05. Ayreon - Over.wav

Peak level 94.3 %
Track quality 100.0 %
Test CRC 97B20610
Copy CRC 97B20610
Track not present in AccurateRip database
Copy OK

Track 6

Filename D:\06. Ayreon - Perfection.wav

Pre-gap length 0:00:01.01

Peak level 94.3 %
Track quality 100.0 %
Test CRC CB679F44
Copy CRC CB679F44
Track not present in AccurateRip database
Copy OK


None of the tracks are present in the AccurateRip database

No errors occurred

End of status report

related torrents

Torrent name

health leech seeds Size
 

comments (0)

Main Menu