Action

X Men Origins Wolverine (2009) DVDRip XviD MAXSPEED com

  • Download 5x Faster
  • Download torrent
  • Direct Download
  • Rate this torrent +  |  -

Torrent info

Name:X Men Origins Wolverine (2009) DVDRip XviD MAXSPEED com

Total Size: 701.47 MB

Magnet: Magnet Link

Seeds: 0

Leechers: 0

Stream: Watch Full Movie @ Movie4u

Last Updated: 0000-00-00 00:00:00 (Update Now)

Torrent added: 2009-09-19 04:34:53



VPN For Torrents

Torrent Files List


X-Men Origins Wolverine (2009) DVDRip XviD-MAXSPEED.nfo (Size: 701.47 MB) (Files: 3)

 X-Men Origins Wolverine (2009) DVDRip XviD-MAXSPEED.nfo

2.26 KB

 X-Men Origins Wolverine (2009) DVDRip XviD-MAXSPEED www.torentz.3xforum.ro.avi

701.31 MB

 screencaps.jpg

156.78 KB
 

Announce URL: http://filezoneworld.com:2710/000002966642229c12a04ce8087312a6/announce

Torrent description

You are required to register at www.filezoneworld.com in order to download this torrent.
The Admin & Staff of the site would like to assure you that we do not charge to register
and you are free to download any of our torrents providing you keep to the site rules,and seed to a ratio of 1:1
We @ FZW have all the latest movies/music/software and games straight from the scene to download at lightening speeds.

Why not pop into out shoutbox for a chat with the friendly and helpful staff.


Format : AVI
Format/Info : Audio Video Interleave
File size : 701 MiB
Duration : 1h 47mn
Overall bit rate : 913 Kbps
Writing application : VirtualDubMod 1.5.10.2 (build 2540/release)
Writing library : VirtualDubMod build 2540/release
Original source form : MAX TORRENTZ
Copyright : SIGISMUNT

Video
Format : MPEG-4 Visual
Format profile : Streaming [email protected]
Format settings, BVOP : Yes
Format settings, QPel : No
Format settings, GMC : No warppoints
Format settings, Matrix : Default (MPEG)
Codec ID : XVID
Codec ID/Hint : XviD
Duration : 1h 47mn
Bit rate : 773 Kbps
Width : 640 pixels
Height : 272 pixels
Display aspect ratio : 2.35
Frame rate : 23.976 fps
Resolution : 24 bits
Colorimetry : 4:2:0
Scan type : Progressive
Bits/(Pixel*Frame) : 0.185
Stream size : 593 MiB (85%)
Writing library : XviD 1.2.1 (UTC 2008-12-04)

Audio
Format : MPEG Audio
Format version : Version 1
Format profile : Layer 3
Codec ID : 55
Codec ID/Hint : MP3
Duration : 1h 47mn
Bit rate mode : Variable
Bit rate : 128 Kbps
Channel(s) : 2 channels
Sampling rate : 48.0 KHz
Resolution : 16 bits
Stream size : 98.3 MiB (14%)
Alignment : Aligned on interleaves
Interleave, duration : 24 ms (0.58 video frame)
Interleave, preload duration : 144 ms
Writing library : LAME3.90.
Encoding settings : -m j -V 4 -q 2 -lowpass 17.6 --abr 128

X Men Origins Wolverine (2009) DVDRip XviD MAXSPEED  com preview 0

related torrents

Torrent name

health leech seeds Size
 


comments (0)

Main Menu

 

script data-cfasync="false" src="//d2ghscazvn398x.cloudfront.net/?cshgd=690275">