Drama

Fireproof[2008]DvDRip[Eng] Uvall 1

  • Download 5x Faster
  • Download torrent
  • Direct Download
  • Rate this torrent +  |  -
Fireproof[2008]DvDRip[Eng] Uvall 1

Anonymous and Direct Download 300GB+ free


Torrent info

Name:Fireproof[2008]DvDRip[Eng] Uvall 1

Total Size: 1.20 GB

Magnet: Magnet Link

Seeds: 2

Leechers: 0

Stream: Watch Online @ Movie4u

Last Updated: 2016-12-04 02:27:37 (Update Now)

Torrent added: 2009-09-18 20:40:44




Torrent Files List


tracked_by_h33t_com.txt (Size: 1.20 GB) (Files: 6)

 tracked_by_h33t_com.txt

0.02 KB

 Cover.jpg

51.43 KB

 Fireproof.nfo

2.55 KB

 Fireproof[2008]DvDRip[Eng]-Uvall.idx

317.12 KB

 Fireproof[2008]DvDRip[Eng]-Uvall.sub

30.48 MB

 Fireproof[2008]DvDRip[Eng]-Uvall.avi

1.17 GB
 

tracker

leech seeds
 

Torrent description

~~~~~~~~~~~~~~~~~~~~~~~~~~~~~~~~~~~~~~~~~~~~~~~~~~~~~~~~~~~~~~~~~~~
Title: Fireproof[2008]
~~~~~~~~~~~~~~~~~~~~~~~~~~~~~~~~~~~~~~~~~~~~~~~~~~~~~~~~~~~~~~~~~~~
~~~~~~~~~~~~~~~~~~~~~~~~~~~~~~~~~~~~~~~~~~~~~~~~~~~~~~~~~~~~~~~~~~~
Release Notes

Genre: Drama

Rated: PG for thematic material and some peril.

Movie Information: http://www.imdb.com/title/tt1129423/

Plot: In an attempt to save his marriage, A firefighter uses a 40-day experiment
known as "The Love Dare".

General
Format : AVI
Format/Info : Audio Video Interleave
File size : 1.17 GiB
Duration : 1h 58mn
Overall bit rate : 1 416 Kbps
Movie name : Fireproof[2009]DvDRip[Eng]-Uvall
Writing application : Lavf52.33.0

Video
Format : MPEG-4 Visual
Format profile : [email protected]
Format settings, BVOP : No
Format settings, QPel : No
Format settings, GMC : No warppoints
Format settings, Matrix : Default (H.263)
Codec ID : XVID
Codec ID/Hint : XviD
Duration : 1h 58mn
Bit rate : 957 Kbps
Width : 704 pixels
Height : 384 pixels
Display aspect ratio : 16:9
Frame rate : 23.976 fps
Resolution : 24 bits
Colorimetry : 4:2:0
Scan type : Progressive
Bits/(Pixel*Frame) : 0.148
Stream size : 810 MiB (68%)
Writing library : XviD 1.2.1 (UTC 2008-12-04)

Audio
Format : AC-3
Format/Info : Audio Coding 3
Codec ID : 2000
Duration : 1h 58mn
Bit rate mode : Constant
Bit rate : 448 Kbps
Channel(s) : 6 channels
Channel positions : Front: L C R, Surround: L R, LFE
Sampling rate : 48.0 KHz
Stream size : 379 MiB (32%)
Alignment : Aligned on interleaves
Interleave, duration : 32 ms (0.77 video frame)
~~~~~~~~~~~~~~~~~~~~~~~~~~~~~~~~~~~~~~~~~~~~~~~~~~~~~~~~~~~~~~~~~~~
~~~~~~~~~~~~~~~~~~~~~~~~~~~~~~~~~~~~~~~~~~~~~~~~~~~~~~~~~~~~~~~~~~~
Posted By: Uvall
~~~~~~~~~~~~~~~~~~~~~~~~~~~~~~~~~~~~~~~~~~~~~~~~~~~~~~~~~~~~~~~~~~~

related torrents

Torrent name

health leech seeds Size

Fireproof 2008 HQ DivX ENG

0 1 609.00 MB 0

Fireproof 2008 HQ DivX ENG

0 1 577.00 MB 0

Fireproof 2008 HQ DivX ENG

0 2 596.00 MB 0
 


comments (0)

Main Menu