Animation

Bionicle The Legend Reborn[2009]DvDRip[Eng] Uvall 1

  • Download 5x Faster
  • Download torrent
  • Direct Download
  • Rate this torrent +  |  -
Bionicle The Legend Reborn[2009]DvDRip[Eng] Uvall 1

Anonymous and Direct Download 300GB+ free


Torrent info

Name:Bionicle The Legend Reborn[2009]DvDRip[Eng] Uvall 1

Total Size: 1.18 GB

Magnet: Magnet Link

Seeds: 4

Leechers: 4

Stream: Watch Online @ Movie4u

Last Updated: 0000-00-00 00:00:00 (Update Now)

Torrent added: 2009-09-18 20:40:23




Torrent Files List


tracked_by_h33t_com.txt (Size: 1.18 GB) (Files: 6)

 tracked_by_h33t_com.txt

0.02 KB

 Bionicle The Legend Reborn.nfo

2.67 KB

 Cover.jpg

71.93 KB

 Bionicle The Legend Reborn[2009]DvDRip[Eng]-Uvall.idx

96.12 KB

 Bionicle The Legend Reborn[2009]DvDRip[Eng]-Uvall.sub

7.53 MB

 Bionicle The Legend Reborn[2009]DvDRip[Eng]-Uvall.avi

1.17 GB
 

Announce URL: http://genesis.1337x.org:1337/announce

Torrent description

~~~~~~~~~~~~~~~~~~~~~~~~~~~~~~~~~~~~~~~~~~~~~~~~~~~~~~~~~~~~~~~~~~~
Title: Bionicle The Legend Reborn[2009]
~~~~~~~~~~~~~~~~~~~~~~~~~~~~~~~~~~~~~~~~~~~~~~~~~~~~~~~~~~~~~~~~~~~
~~~~~~~~~~~~~~~~~~~~~~~~~~~~~~~~~~~~~~~~~~~~~~~~~~~~~~~~~~~~~~~~~~~
Release Notes

Genre: Animation | Action | Adventure | Sci-Fi

Rated: PG-13 for some intense sequences of sci-fi action and violence, and brief
suggestive content.

Movie Information: http://www.imdb.com/title/tt1473345/

Plot: Once the ruler of an entire universe, the Great Spirit Mata
Nui finds himself cast out of his own body

Format : AVI
Format/Info : Audio Video Interleave
File size : 1.17 GiB
Duration : 1h 20mn
Overall bit rate : 2 079 Kbps
Movie name : Bionicle The Legend Reborn[2009]DvDRip[Eng]-Uvall
Writing application : Lavf52.33.0

Video
Format : MPEG-4 Visual
Format profile : [email protected]
Format settings, BVOP : No
Format settings, QPel : No
Format settings, GMC : No warppoints
Format settings, Matrix : Default (H.263)
Codec ID : XVID
Codec ID/Hint : XviD
Duration : 1h 20mn
Bit rate : 1 620 Kbps
Width : 704 pixels
Height : 398 pixels
Display aspect ratio : 16:9
Frame rate : 23.976 fps
Resolution : 24 bits
Colorimetry : 4:2:0
Scan type : Progressive
Bits/(Pixel*Frame) : 0.241
Stream size : 934 MiB (78%)
Writing library : XviD 1.2.1 (UTC 2008-12-04)

Audio
Format : AC-3
Format/Info : Audio Coding 3
Codec ID : 2000
Duration : 1h 20mn
Bit rate mode : Constant
Bit rate : 448 Kbps
Channel(s) : 6 channels
Channel positions : Front: L C R, Surround: L R, LFE
Sampling rate : 48.0 KHz
Stream size : 258 MiB (22%)
Alignment : Aligned on interleaves
Interleave, duration : 32 ms (0.77 video frame)
~~~~~~~~~~~~~~~~~~~~~~~~~~~~~~~~~~~~~~~~~~~~~~~~~~~~~~~~~~~~~~~~~~~
~~~~~~~~~~~~~~~~~~~~~~~~~~~~~~~~~~~~~~~~~~~~~~~~~~~~~~~~~~~~~~~~~~~
Posted By: Uvall
~~~~~~~~~~~~~~~~~~~~~~~~~~~~~~~~~~~~~~~~~~~~~~~~~~~~~~~~~~~~~~~~~~~

related torrents

Torrent name

health leech seeds Size
 


comments (0)

Main Menu