Action

The Jackal [1997] 1280x544 HD Mp4 H264 AAC 5 1 ch 3Li

  • Download 5x Faster
  • Download torrent
  • Direct Download
  • Rate this torrent +  |  -
The Jackal [1997] 1280x544 HD Mp4 H264 AAC 5 1 ch 3Li

Anonymous and Free Direct Download 300GB+


Torrent info

Name:The Jackal [1997] 1280x544 HD Mp4 H264 AAC 5 1 ch 3Li

Total Size: 1.43 GB

Magnet: Magnet Link

Seeds: 0

Leechers: 0

Stream: Watch Online @ Movie4u

Last Updated: 2015-09-07 19:49:05 (Update Now)

Torrent added: 2009-09-18 20:34:34



VPN For Torrents

Torrent Files List


tracked_by_h33t_com.txt (Size: 1.43 GB) (Files: 14)

 tracked_by_h33t_com.txt

0.02 KB

 The Jackal.mp4.txt

5.00 KB

 Torrent downloaded from Demonoid.com.txt

0.05 KB

 snapshot20090919000747.jpg

46.05 KB

 snapshot20090919000504.jpg

55.58 KB

 snapshot20090919000805.jpg

57.05 KB

 snapshot20090918235318.jpg

61.65 KB

 snapshot20090919000338.jpg

64.33 KB

 snapshot20090919000542.jpg

66.10 KB

 snapshot20090919000415.jpg

74.62 KB

 snapshot20090919000452.jpg

82.80 KB

 snapshot20090919000651.jpg

84.16 KB

 snapshot20090919000841.jpg

92.40 KB

 The Jackal.mp4

1.43 GB
 

tracker

leech seeds
 

Torrent description

General
Complete name : The Jackal.mp4
Format : MPEG-4
Format profile : Base Media
Codec ID : isom
File size : 1.43 GiB
Duration : 2h 4mn
Overall bit rate : 1 651 Kbps
Encoded date : UTC 2009-09-17 20:55:12
Tagged date : UTC 2009-09-17 20:55:12

Video
ID : 1
Format : AVC
Format/Info : Advanced Video Codec
Format profile : [email protected]
Format settings, CABAC : Yes
Format settings, ReFrames : 4 frames
Codec ID : avc1
Codec ID/Info : Advanced Video Coding
Duration : 2h 4mn
Bit rate mode : Variable
Bit rate : 1 456 Kbps
Nominal bit rate : 1 464 Kbps
Maximum bit rate : 6 477 Kbps
Width : 1 280 pixels
Height : 544 pixels
Display aspect ratio : 2.35:1
Frame rate mode : Constant
Frame rate : 23.976 fps
Resolution : 24 bits
Colorimetry : 4:2:0
Scan type : Progressive
Bits/(Pixel*Frame) : 0.087
Stream size : 1.26 GiB (88%)
Title : The Jackal By 3Li
Writing library : x264 core 68

Audio
ID : 2
Format : AAC
Format/Info : Advanced Audio Codec
Format version : Version 4
Format profile : LC
Format settings, SBR : No
Codec ID : 40
Duration : 2h 4mn
Bit rate mode : Variable
Bit rate : 192 Kbps
Maximum bit rate : 229 Kbps
Channel(s) : 6 channels
Channel positions : Front: L C R, Rear: L R, LFE
Sampling rate : 48.0 KHz
Resolution : 16 bits
Stream size : 170 MiB (12%)
Title : The Jackal
Language : English
Encoded date : UTC 2009-09-17 20:56:35
Tagged date : UTC 2009-09-17 20:56:48

related torrents

Torrent name

health leech seeds Size
 


comments (0)

Main Menu