Comedy

The Cable Guy[1996]DvdRip DM'37' Fin Swe No NL MultiSubs

  • Download 5x Faster
  • Download torrent
  • Direct Download
  • Rate this torrent +  |  -
The Cable Guy[1996]DvdRip DM'37' Fin Swe No NL MultiSubs

Anonymous and Direct Download 300GB+ free


Torrent info

Name:The Cable Guy[1996]DvdRip DM'37' Fin Swe No NL MultiSubs

Total Size: 697.14 MB

Magnet: Magnet Link

Seeds: 0

Leechers: 0

Stream: Watch Online @ Movie4u

Last Updated: 2011-11-19 05:15:08 (Update Now)

Torrent added: 2009-09-18 14:39:49




Torrent Files List


The Cable Guy Dvd Cover.jpg (Size: 697.14 MB) (Files: 11)

 The Cable Guy Dvd Cover.jpg

52.43 KB

 The Cable Guy[1996]DvdRip-DM'37'.Danish.srt

62.32 KB

 The Cable Guy[1996]DvdRip-DM'37'.Finnish.srt

60.39 KB

 The Cable Guy[1996]DvdRip-DM'37'.Polish.srt

62.72 KB

 The Cable Guy[1996]DvdRip-DM'37'.Dutch.srt

63.32 KB

 The Cable Guy[1996]DvdRip-DM'37'.Norwegian.srt

62.96 KB

 The Cable Guy[1996]DvdRip-DM'37'.English.srt

63.70 KB

 The Cable Guy[1996]DvdRip-DM'37'.Swedish.srt

66.16 KB

 The Cable Guy[1996]DvdRip-DM'37'.French.srt

65.06 KB

 The Cable Guy[1996]DvdRip-DM'37'.avi

696.53 MB

 The Cable Guy[1996]DvdRip-DM'37'.German.srt

66.33 KB
 

Announce URL:

Torrent description

THE CABLE GUY (1996) http://www.imdb.com/title/tt0115798/

Comedy

Jim Carrey

44 out of 58 people found the following comment useful :-
Carrey's greatest!, 30 June 2001
Author: INFOFREAKO from Perth, Australia

I divide movie fans into two types - those that love The Cable Guy, and those that don't. The latter I try and avoid.

Welcome to the most misunderstood, unjustly dissed movie of the 90s! Even Homer Simpson hates it! I'm not going waste time trying to change anybody's mind on this gem. If you don't see the sheer brilliance of this you're beyond hope. All I can say is that it ROCKS in every way. Jim Carrey has never been better as the creepy, psycho stalker "Chip Douglas", and Matthew Broderick is wonderfully likeable as Chip's unsuspecting customer. Add to that a tremendously cool supporting cast of cult legends including Charles Napier, Janeane Garofolo, Eric Roberts, Mr. Show's Bob and David, Sean Whalen,Owen Wilson, Andy Dick and BOTH members of Tenacious D, among others.

Full of memorable sequences - the Karaoke jam, the Medieval theme restaurant, director Ben Stiller's recurring duel role - The Cable Guy is smart-as-a-whip, black, surreal, FUNNY, FUNNY stuff!

DvdRip and all subtitles as usually all ripped and tested by me - all works

perfectly. Ripped to xvid(.avi) with the slowest best possible settings for

maximum quality. As some of you already know i am watching my rips on a 37 inch

LCD TV so it must look perfect to me (just like the dvd) only then i am satisfied

and it gets a release...

ENJOY !! A brilliant movie with Jim Carrey at his best. I watched it only 3 days

ago and i laughed truly much. This rip i made then 2 days ago.

I have seen almost all Jim Carrey movies and this is easily among his top 3.

ENJOY !

-----------------------------------------------------------------------------------
LOG:

SOURCE : PAL DVD
AUDIO : English
SUBTITLES : Finnish, Swedish, Norwegian, Danish, Dutch, English, German, Polish, French
- all Subs works perfectly on PC and TV (i have ripped and testedl of them).

Format : AVI
Format/Info : Audio Video Interleave
File size : 697 MiB
Duration : 1h 31mn
Overall bit rate : 1 060 Kbps

Video
Format : MPEG-4 Visual
Format profile : [email protected]
Format settings, BVOP : Yes
Format settings, QPel : No
Format settings, GMC : No warppoints
Format settings, Matrix : Default (H.263)
Muxing mode : Packed bitstream
Codec ID : XVID
Codec ID/Hint : XviD
Duration : 1h 31mn
Bit rate : 933 Kbps
Width : 688 pixels
Height : 288 pixels
Display aspect ratio : 2.35:1
Frame rate : 25.000 fps
Resolution : 24 bits
Colorimetry : 4:2:0
Scan type : Progressive
Bits/(Pixel*Frame) : 0.188
Stream size : 613 MiB (88%)
Writing library : XviD 1.2.0.dev47 (UTC 2006-11-01)

Audio
Format : MPEG Audio
Format version : Version 1
Format profile : Layer 3
Codec ID/Hint : MP3
Duration : 1h 31mn
Bit rate mode : Variable
Bit rate : 114 Kbps
Nominal bit rate : 128 Kbps
Channel(s) : 2 channels
Sampling rate : 48.0 KHz
Resolution : 16 bits
Stream size : 74.7 MiB (11%)
Alignment : Aligned on interleaves
Interleave, duration : 24 ms (0.60 video frame)
Interleave, preload duration : 510 ms
Writing library : LAME3.98r

related torrents

Torrent name

health leech seeds Size

The Cable Guy (1996)

0 7 297.09 MB 0
 


comments (0)

Main Menu