Horror

The Seamstress[2009]DvDrip LW [SharingHQ]

  • Download 5x Faster
  • Download torrent
  • Direct Download
  • Rate this torrent +  |  -
The Seamstress[2009]DvDrip LW [SharingHQ]

Anonymous and free Direct Download 300GB+


Torrent info

Name:The Seamstress[2009]DvDrip LW [SharingHQ]

Total Size: 700.05 MB

Magnet: Magnet Link

Seeds: 1

Leechers: 53

Stream: Watch Online @ Movie4u

Last Updated: 2010-09-29 16:49:15 (Update Now)

Torrent added: 2009-09-18 13:33:44



VPN For Torrents

Torrent Files List


Trackers (Size: 700.05 MB) (Files: 6)

 Trackers

  tracked_by_h33t_com.txt

0.02 KB

  Torrent_downloaded_from_Demonoid.com.txt

0.05 KB

 Movie

  The Seamstress[2009]DvDrip-LW.avi

699.96 MB

 Info

  Movie Info.nfo

4.20 KB

  Movie Info.txt

3.03 KB

 Cover

  Cover.jpg

88.03 KB
 

Announce URL: http://torrentz.comlu.com/Torrentz/announce.php

Torrent description

) (`-. (` .-') /` ) (`-.
( OO ). `.( OO ),' ( OO ).
(_/. \_)-.-'),-----. ,--. ,--./ .--. .-'),-----.(_/. \_)-.
`.' ( OO' .-. '| |.-') | | | ( OO' .-. ' `.' /
/Y | | | || | OO )| | | |,/ | | | | /
\_) | || || |`-' || |.'.| |_)_) | || | |
.' \_) | | | (| '---.'| | | | | | .' \_)
/ .'. `' '-' '| | | ,'. | `' '-' '/ .'.
'--' '--' `-----' `------' '--' '--' `-----''--' '--'


ßßßßßßßßßßßßßßßßßßßßßßßßßßßßßßßßßßßßßßßßßßßßßßßßßßßßßßßßßßßßßßßßßßßßßß

Û°°°°°°°°°°°°°°°°°°°°°°°°°°°°°°°Û
ÛÛ The Seamstress[2009]DvDrip-LW ÛÛ
Û°°°°°°°°°°°°°°°°°°°°°°°°°°°°°°°Û

File Name : The Seamstress[2009]DvDrip-LW
Type : Movie
Format : AVI
File Size : 699 MB
Duration : 01:12:26
Language : English
Source : DvD
Subtitles : None
Genre : Horror
IMDB Link : http://www.imdb.com/title/tt1326260/
IMDB Rating : 5.9/10
IMDB Votes : 5 Votes
ÜÜÜÜÜÜÜÜÜÜÜÜÜÜÜÜÜÜÜÜÜÜÜÜÜÜÜÜÜÜÜÜÜÜÜÜÜÜÜÜÜÜÜÜÜÜÜÜÜÜÜÜÜÜÜÜÜÜÜÜÜÜÜÜÜÜÜÜÜÜ

Û°°°°°°°°°°°°°°°°°°°°°°°°Û
ÛÛ Video Info ÛÛ
Û°°°°°°°°°°°°°°°°°°°°°°°°Û

Format : MPEG-4 Visual
Format profile : Streaming [email protected]
Format settings, BVOP : Yes
Format settings, QPel : No
Format settings, GMC : No warppoints
Format settings, Matrix : Default (MPEG)
Codec ID : XVID
Codec ID/Hint : XviD
Duration : 1h 12mn
Bit rate : 1 186 Kbps
Width : 624 pixels
Height : 352 pixels
Display aspect ratio : 16/9
Frame rate : 25.000 fps
Resolution : 24 bits
Colorimetry : 4:2:0
Scan type : Progressive
Bits/(Pixel*Frame) : 0.216
Stream size : 615 MiB (88%)
Writing library : XviD 55
ÜÜÜÜÜÜÜÜÜÜÜÜÜÜÜÜÜÜÜÜÜÜÜÜÜÜÜÜÜÜÜÜÜÜÜÜÜÜÜÜÜÜÜÜÜÜÜÜÜÜÜÜÜÜÜÜÜÜÜÜÜÜÜÜÜÜÜÜÜÜ

Û°°°°°°°°°°°°°°°°°°°°°°°°Û
ÛÛ Sound Info ÛÛ
Û°°°°°°°°°°°°°°°°°°°°°°°°Û

Format : MPEG Audio
Format version : Version 1
Format profile : Layer 3
Codec ID : 55
Codec ID/Hint : MP3
Duration : 1h 12mn
Bit rate mode : Variable
Bit rate : 152 Kbps
Minimum bit rate : 32.0 Kbps
Channel(s) : 2 channels
Sampling rate : 48.0 KHz
Resolution : 16 bits
Stream size : 78.7 MiB (11%)
Alignment : Aligned on interleaves
Interleave, duration : 24 ms (0.60 video frame)
Interleave, preload duration : 333 ms
Writing library : LAME3.98b
Encoding settings : VBR
ÜÜÜÜÜÜÜÜÜÜÜÜÜÜÜÜÜÜÜÜÜÜÜÜÜÜÜÜÜÜÜÜÜÜÜÜÜÜÜÜÜÜÜÜÜÜÜÜÜÜÜÜÜÜÜÜÜÜÜÜÜÜÜÜÜÜÜÜÜÜ

Û°°°°°°°°°°°°°°°°°°°°°°°°Û
ÛÛ Plot ÛÛ
Û°°°°°°°°°°°°°°°°°°°°°°°°Û

After vigilantes torture and kill a seamstress,
she becomes a horrific spirit, hungry for vengeance
-- and when a group of young friends are trapped
on the island where she died, she comes after them
with her razor-sharp needles. But as one of the
friends, Allie (Kailin See), searches for her missing
father, she learns a terrible truth about him while
her friends begin dying one by one. Lance Henriksen
co-stars in this gory spine-chiller.

Starring: Lance Henriksen, Kailin See

Director: Jesse James Miller
ÜÜÜÜÜÜÜÜÜÜÜÜÜÜÜÜÜÜÜÜÜÜÜÜÜÜÜÜÜÜÜÜÜÜÜÜÜÜÜÜÜÜÜÜÜÜÜÜÜÜÜÜÜÜÜÜÜÜÜÜÜÜÜÜÜÜÜÜÜÜ

related torrents

Torrent name

health leech seeds Size
 


comments (0)

Main Menu