Action

Air Force One [1997] 1280x528 HD Mp4 H264 AAC 5 1 ch 3Li

  • Download 5x Faster
  • Download torrent
  • Direct Download
  • Rate this torrent +  |  -
Air Force One [1997] 1280x528 HD Mp4 H264 AAC 5 1 ch 3Li

Anonymous and Direct Download 300GB+ free


Torrent info

Name:Air Force One [1997] 1280x528 HD Mp4 H264 AAC 5 1 ch 3Li

Total Size: 1.44 GB

Magnet: Magnet Link

Seeds: 0

Leechers: 0

Stream: Watch Online @ Movie4u

Last Updated: 2015-10-03 10:05:16 (Update Now)

Torrent added: 2009-09-18 11:41:43




Torrent Files List


tracked_by_h33t_com.txt (Size: 1.44 GB) (Files: 14)

 tracked_by_h33t_com.txt

0.02 KB

 Torrent downloaded from Demonoid.com.txt

0.05 KB

 Air Force One.mp4.txt

5.02 KB

 snapshot20090918164744.jpg

55.27 KB

 snapshot20090918165104.jpg

59.62 KB

 snapshot20090918164858.jpg

59.67 KB

 snapshot20090918164942.jpg

60.69 KB

 snapshot20090918164550.jpg

62.90 KB

 snapshot20090918164702.jpg

65.85 KB

 snapshot20090918164423.jpg

70.59 KB

 snapshot20090918165050.jpg

78.87 KB

 snapshot20090918164922.jpg

71.03 KB

 snapshot20090918164643.jpg

86.86 KB

 Air Force One.mp4

1.43 GB
 

tracker

leech seeds
 

Torrent description

General
Complete name : Air Force One.mp4
Format : MPEG-4
Format profile : Base Media
Codec ID : isom
File size : 1.43 GiB
Duration : 2h 4mn
Overall bit rate : 1 649 Kbps
Encoded date : UTC 2009-09-17 13:54:37
Tagged date : UTC 2009-09-17 13:54:37

Video
ID : 1
Format : AVC
Format/Info : Advanced Video Codec
Format profile : [email protected]
Format settings, CABAC : Yes
Format settings, ReFrames : 4 frames
Codec ID : avc1
Codec ID/Info : Advanced Video Coding
Duration : 2h 4mn
Bit rate mode : Variable
Bit rate : 1 446 Kbps
Nominal bit rate : 1 460 Kbps
Maximum bit rate : 6 649 Kbps
Width : 1 280 pixels
Height : 528 pixels
Display aspect ratio : 2.40:1
Frame rate mode : Constant
Frame rate : 23.976 fps
Resolution : 24 bits
Colorimetry : 4:2:0
Scan type : Progressive
Bits/(Pixel*Frame) : 0.089
Stream size : 1.26 GiB (88%)
Title : Air Force One By 3Li
Writing library : x264 core 68

Audio
ID : 2
Format : AAC
Format/Info : Advanced Audio Codec
Format version : Version 4
Format profile : LC
Format settings, SBR : No
Codec ID : 40
Duration : 2h 4mn
Bit rate mode : Variable
Bit rate : 199 Kbps
Maximum bit rate : 297 Kbps
Channel(s) : 6 channels
Channel positions : Front: L C R, Rear: L R, LFE
Sampling rate : 48.0 KHz
Resolution : 16 bits
Stream size : 177 MiB (12%)
Title : Air Force One
Language : English
Encoded date : UTC 2009-09-17 13:55:17
Tagged date : UTC 2009-09-17 13:55:28

related torrents

Torrent name

health leech seeds Size
 


comments (0)

Main Menu