TV - Other

Darna Fri091809 PHILIPPINES tvrip (TAGALOG) [tukmol101]

  • Download 5x Faster
  • Download torrent
  • Direct Download
  • Rate this torrent +  |  -
Darna Fri091809 PHILIPPINES tvrip (TAGALOG) [tukmol101]

Anonymous and Free Direct Download 300GB+


Torrent info

Name:Darna Fri091809 PHILIPPINES tvrip (TAGALOG) [tukmol101]

Total Size: 258.51 MB

Magnet: Magnet Link

Seeds: 1

Leechers: 0

Stream: Watch Online @ Movie4u

Last Updated: 2010-04-02 15:18:28 (Update Now)

Torrent added: 2009-09-18 10:45:55



VPN For Torrents

Torrent Files List


Darna.avi (Size: 258.51 MB) (Files: 4)

 Darna.avi

251.12 MB

 sample.avi

7.39 MB

 Read Me.nfo

0.58 KB

 tracked_by_h33t_com.txt

0.02 KB
 

Announce URL: http://www.h33t.com:3310/announce

Torrent description

with sample
read nfo
General
Complete name : Darna.avi
Format : AVI
Format/Info : Audio Video Interleave
File size : 251 MiB
Duration : 28mn 6s
Overall bit rate : 1 249 Kbps
Writing application : VirtualDubMod 1.5.4.1 (build 2178/release)
Writing library : VirtualDubMod build 2178/release

Video
ID : 0
Format : MPEG-4 Visual
Format profile : [email protected]
Format settings, BVOP : Yes
Format settings, QPel : No
Format settings, GMC : No warppoints
Format settings, Matrix : Default (H.263)
Muxing mode : Packed bitstream
Codec ID : XVID
Codec ID/Hint : XviD
Duration : 28mn 6s
Bit rate : 1 134 Kbps
Width : 592 pixels
Height : 448 pixels
Display aspect ratio : 4:3
Frame rate : 29.970 fps
Resolution : 24 bits
Colorimetry : 4:2:0
Scan type : Progressive
Bits/(Pixel*Frame) : 0.143
Stream size : 228 MiB (91%)
Writing library : XviD 1.2.1 (UTC 2008-12-04)

Audio
ID : 1
Format : MPEG Audio
Format version : Version 1
Format profile : Layer 3
Codec ID : 55
Codec ID/Hint : MP3
Duration : 28mn 6s
Bit rate mode : Variable
Bit rate : 101 Kbps
Nominal bit rate : 128 Kbps
Channel(s) : 2 channels
Sampling rate : 48.0 KHz
Resolution : 16 bits
Stream size : 20.4 MiB (8%)
Alignment : Aligned on interleaves
Interleave, duration : 24 ms (0.72 video frame)
Interleave, preload duration : 538 ms
Writing library : LAME3.98r
Encoding settings : -m j -V 4 -q 2 -lowpass 17 --abr 128

related torrents

Torrent name

health leech seeds Size
 


comments (0)

Main Menu