Action

Eraser [1996] 1280x528 HD Mp4 H264 AAC 5 1 ch 3Li

  • Download 5x Faster
  • Download torrent
  • Direct Download
  • Rate this torrent +  |  -
Eraser [1996] 1280x528 HD Mp4 H264 AAC 5 1 ch 3Li

Free and Direct Download with Usenet 300GB+ free


Torrent info

Name:Eraser [1996] 1280x528 HD Mp4 H264 AAC 5 1 ch 3Li

Total Size: 1.43 GB

Magnet: Magnet Link

Seeds: 0

Leechers: 0

Stream: Watch Online @ Movie4u

Last Updated: 2012-05-30 00:31:43 (Update Now)

Torrent added: 2009-09-18 10:44:47




Torrent Files List


Eraser.mp4 (Size: 1.43 GB) (Files: 16)

 Eraser.mp4

1.43 GB

 snapshot20090918084021.jpg

121.04 KB

 snapshot20090918082859.jpg

109.57 KB

 snapshot20090918083905.jpg

95.90 KB

 snapshot20090918082911.jpg

93.28 KB

 snapshot20090918084433.jpg

80.67 KB

 snapshot20090918083525.jpg

77.62 KB

 snapshot20090918083254.jpg

76.03 KB

 snapshot20090918082920.jpg

71.13 KB

 snapshot20090918083409.jpg

64.51 KB

 snapshot20090918083115.jpg

60.92 KB

 snapshot20090918083610.jpg

58.88 KB

 snapshot20090918083357.jpg

49.56 KB

 Eraser.mp4.txt

4.98 KB

 Torrent downloaded from Demonoid.com.txt

0.05 KB

 tracked_by_h33t_com.txt

0.02 KB
 

Announce URL: http://inferno.demonoid.com:3390/announce

Torrent description

General
Complete name : Eraser.mp4
Format : MPEG-4
Format profile : Base Media
Codec ID : isom
File size : 1.43 GiB
Duration : 1h 54mn
Overall bit rate : 1 790 Kbps
Encoded date : UTC 2009-09-17 00:00:04
Tagged date : UTC 2009-09-17 00:00:04

Video
ID : 1
Format : AVC
Format/Info : Advanced Video Codec
Format profile : [email protected]
Format settings, CABAC : Yes
Format settings, ReFrames : 4 frames
Codec ID : avc1
Codec ID/Info : Advanced Video Coding
Duration : 1h 54mn
Bit rate mode : Variable
Bit rate : 1 588 Kbps
Nominal bit rate : 1 606 Kbps
Maximum bit rate : 7 768 Kbps
Width : 1 280 pixels
Height : 528 pixels
Display aspect ratio : 2.40:1
Frame rate mode : Constant
Frame rate : 23.976 fps
Resolution : 24 bits
Colorimetry : 4:2:0
Scan type : Progressive
Bits/(Pixel*Frame) : 0.098
Stream size : 1.27 GiB (89%)
Title : Eraser By 3Li
Writing library : x264 core 68

Audio
ID : 2
Format : AAC
Format/Info : Advanced Audio Codec
Format version : Version 4
Format profile : LC
Format settings, SBR : No
Codec ID : 40
Duration : 1h 54mn
Bit rate mode : Variable
Bit rate : 198 Kbps
Maximum bit rate : 219 Kbps
Channel(s) : 6 channels
Channel positions : Front: L C R, Rear: L R, LFE
Sampling rate : 48.0 KHz
Resolution : 16 bits
Stream size : 163 MiB (11%)
Title : Eraser
Language : English
Encoded date : UTC 2009-09-17 00:01:23
Tagged date : UTC 2009-09-17 00:01:36

related torrents

Torrent name

health leech seeds Size
 

comments (0)

Main Menu