Fantasy

The Spiderwick Chronicles [2008] 1280x544 HD Mp4 H264 AAC 2 ch 3Li

  • Download 5x Faster
  • Download torrent
  • Direct Download
  • Rate this torrent +  |  -
The Spiderwick Chronicles [2008] 1280x544 HD Mp4 H264 AAC 2 ch 3Li

Free and Direct Download with Usenet.nl 300GB+ free


Torrent info

Name:The Spiderwick Chronicles [2008] 1280x544 HD Mp4 H264 AAC 2 ch 3Li

Total Size: 1.50 GB

Magnet: Magnet Link

Seeds: 0

Leechers: 0

Stream: Watch Online @ Movie4u

Last Updated: 2015-09-19 22:09:43 (Update Now)

Torrent added: 2009-09-18 10:44:28





Torrent Files List


The Spiderwick Chronicles.mp4 (Size: 1.50 GB) (Files: 16)

 The Spiderwick Chronicles.mp4

1.49 GB

 snapshot20090918072212.jpg

100.32 KB

 snapshot20090918072325.jpg

96.74 KB

 snapshot20090918072107.jpg

83.71 KB

 snapshot20090918071954.jpg

81.04 KB

 snapshot20090918070724.jpg

79.63 KB

 snapshot20090918071623.jpg

79.51 KB

 snapshot20090918071354.jpg

77.88 KB

 snapshot20090918071635.jpg

77.23 KB

 snapshot20090918072342.jpg

74.53 KB

 snapshot20090918071101.jpg

72.15 KB

 snapshot20090918071301.jpg

70.49 KB

 snapshot20090918072048.jpg

51.57 KB

 The Spiderwick Chronicles.mp4.txt

4.94 KB

 Torrent downloaded from Demonoid.com.txt

0.05 KB

 tracked_by_h33t_com.txt

0.02 KB
 

tracker

leech seeds
 

Torrent description

General
Complete name : The Spiderwick Chronicles.mp4
Format : MPEG-4
Format profile : Base Media
Codec ID : isom
File size : 1.49 GiB
Duration : 1h 35mn
Overall bit rate : 2 234 Kbps
Encoded date : UTC 2009-09-17 01:42:32
Tagged date : UTC 2009-09-17 01:42:32

Video
ID : 1
Format : AVC
Format/Info : Advanced Video Codec
Format profile : [email protected]
Format settings, CABAC : Yes
Format settings, ReFrames : 4 frames
Codec ID : avc1
Codec ID/Info : Advanced Video Coding
Duration : 1h 35mn
Bit rate mode : Variable
Bit rate : 2 100 Kbps
Maximum bit rate : 9 007 Kbps
Width : 1 280 pixels
Height : 544 pixels
Display aspect ratio : 2.35:1
Frame rate mode : Constant
Frame rate : 23.976 fps
Resolution : 24 bits
Colorimetry : 4:2:0
Scan type : Progressive
Bits/(Pixel*Frame) : 0.126
Stream size : 1.40 GiB (94%)
Title : The Spiderwick Chronicles
Writing library : x264 core 67

Audio
ID : 2
Format : AAC
Format/Info : Advanced Audio Codec
Format version : Version 4
Format profile : LC
Format settings, SBR : No
Codec ID : 40
Duration : 1h 35mn
Bit rate mode : Variable
Bit rate : 132.3 Kbps
Maximum bit rate : 179 Kbps
Channel(s) : 2 channels
Channel positions : L R
Sampling rate : 48.0 KHz
Resolution : 16 bits
Stream size : 89.1 MiB (6%)
Title : The Spiderwick Chronicles
Language : English
Encoded date : UTC 2009-09-17 01:44:21
Tagged date : UTC 2009-09-17 01:44:26

related torrents

Torrent name

health leech seeds Size
 

comments (0)

Main Menu