Action

Extratorrent com Poseidon (2006) DvdRip Xvid ExtraScene RG

  • Download 5x Faster
  • Download torrent
  • Direct Download
  • Rate this torrent +  |  -
Extratorrent com Poseidon (2006) DvdRip Xvid ExtraScene RG

Free and Direct Download with Usenet 300GB+ free


Torrent info

Name:Extratorrent com Poseidon (2006) DvdRip Xvid ExtraScene RG

Total Size: 689.63 MB

Magnet: Magnet Link

Seeds: 0

Leechers: 0

Stream: Watch Online @ Movie4u

Last Updated: 2011-07-31 11:12:09 (Update Now)

Torrent added: 2009-09-18 10:40:55




Torrent Files List


Poseidon 2006 DvdRip ExtraScene Rg.avi (Size: 689.63 MB) (Files: 1)

 Poseidon 2006 DvdRip ExtraScene Rg.avi

689.63 MB
 

Announce URL:

Torrent description

========== General ==========

Complete name : Poseidon 2006 Dvd ExtraScene Rg
Format : AVI
Format/Info : Audio Video Interleave
File size : 690 MiB
Duration : 1h 29mn
Overall bit rate : 1 082 Kbps

========== Video ==========

Format : MPEG-4 Visual
Format settings, Matrix : Default (H.263)
Codec ID : XVID
Duration : 1h 29mn
Bit rate : 944 Kbps
Width : 640 pixels
Height : 256 pixels
Display aspect ratio : 2.500
Frame rate : 23.976 fps
Resolution : 24 bits
Colorimetry : 4:2:0
Scan type : Progressive
Bits/(Pixel*Frame) : 0.240
Stream size : 602 MiB (87%)
Writing library : XviD

========== Audio ==========

Format : MPEG Audio
Format version : Version 1
Format profile : Layer 3
Codec ID : 55
Codec ID/Hint : MP3
Duration : 1h 29mn
Bit rate mode : Constant
Bit rate : 128 Kbps
Channel(s) : 2 channels
Sampling rate : 48.0 KHz
Resolution : 16 bits
Stream size : 81.6 MiB (12%)
Alignment : Aligned on interleaves
Interleave, duration : 42 ms (1.00 video frame)
Interleave, preload duration : 504 ms


Release Date : 12 May 2006 (USA)
Genre : Action | Adventure | Thriller
Tagline : Mayday




It is New Year's Eve, and over 2,000 passengers & crew are ringing in the New Year aboard the huge cruise ship 'Poseidon' on the open sea in the middle of the North Atlantic Ocean! A small group of survivors find themselves unlikely allies in a battle for their lives. Preferring to test the odds alone, career gambler Dylan Johns ignores captain's orders to wait below for possible rescue and sets out to find his own way to safety. What begins as a solo mission soon draws others, as Dylan is followed by a desperate father searching for his daughter and her fiancee--a young couple who hours before couldn't summon the courage to tell him they were engaged and now face much graver challenges


Josh Lucas ... Dylan Johns
Kurt Russell ... Robert Ramsey
Jacinda Barrett ... Maggie James
Richard Dreyfuss ... Richard Nelson
Emmy Rossum ... Jennifer Ramsey
M?a Maestro ... Elena Morales
Mike Vogel ... Christian
Kevin Dillon ... Lucky Larry
Freddy Rodr?guez ... Marco Valentin
Jimmy Bennett ... Conor James
Stacy Ferguson ... Gloria
Andre Braugher ... Captain Bradford
Kirk B.R. Woller ... Chief Officer Reynolds
Kelly McNair ... Emily
Gabriel Jarret ... 1st Officer Chapman


===.:: Shoutz ::.===
MaddSkillz | xxxOBSCENExxx | NaTaS | SouLesS | Noir | BADASS | W1ck3d1nt3ntz | Titan | KooKoo | ET | 1337x | Dubbers


===.:: Releaser Notes ::.===
We are currently accepting any retail DVD-R or any source such as R5 or Screeners..
[email protected]

screenshots:
Extratorrent com Poseidon (2006) DvdRip Xvid ExtraScene RG preview 0
Extratorrent com Poseidon (2006) DvdRip Xvid ExtraScene RG preview 1
Extratorrent com Poseidon (2006) DvdRip Xvid ExtraScene RG preview 2
Extratorrent com Poseidon (2006) DvdRip Xvid ExtraScene RG preview 3
Extratorrent com Poseidon (2006) DvdRip Xvid ExtraScene RG preview 4

More info and releases in www.ExtraTorrent.com

related torrents

Torrent name

health leech seeds Size
 

comments (0)

Main Menu