Drama

Anonimo Veneziano [XviD Ita Esp Mp3 Sub Esp Eng] TNTVillage

  • Download 5x Faster
  • Download torrent
  • Direct Download
  • Rate this torrent +  |  -
Anonimo Veneziano [XviD Ita Esp Mp3 Sub Esp Eng] TNTVillage

Anonymous and free Direct Download 300GB+


Torrent info

Name:Anonimo Veneziano [XviD Ita Esp Mp3 Sub Esp Eng] TNTVillage

Total Size: 700.12 MB

Magnet: Magnet Link

Seeds: 4

Leechers: 0

Stream: Watch Online @ Movie4u

Last Updated: 0000-00-00 00:00:00 (Update Now)

Torrent added: 2009-09-18 10:40:20



VPN For Torrents

Torrent Files List


Anonimo_Veneziano.srt (Size: 700.12 MB) (Files: 3)

 Anonimo_Veneziano.srt

54.93 KB

 Anonimo_Veneziano_Eng.srt

56.35 KB

 Anonimo_Veneziano.avi

700.01 MB
 

Announce URL: http://tracker.torrentbox.com:2710/announce

Torrent description

[SIZE=16][color=blue] ANONIMO VENEZIANO[/SIZE][/color]

[SIZE=6][color=purple] by NOMORENOMORE [/SIZE][/color]

Link Locandina

[color=green]:::->Scheda del film<-:::[/color]

Titolo: Anonimo Veneziano
Titolo originale: Anonimo Veneziano
Nazionalità: Italia
Anno: 1970
Distribuzione: Ultra Film
Data di uscita: 30 Settembre 1970

Anonimo Veneziano [XviD   Ita Esp Mp3   Sub Esp Eng] TNTVillage preview 0Anonimo Veneziano [XviD   Ita Esp Mp3   Sub Esp Eng] TNTVillage preview 1Anonimo Veneziano [XviD   Ita Esp Mp3   Sub Esp Eng] TNTVillage preview 2

[color=green]:::->Trama<-:::[/color]
Enrico, un musicista della Fenice che non è riuscito a diventare direttore d'orchestra, avendo appreso di avere un male incurabile, decide di invitare la sua ex moglie a Venezia.

Lei acconsente nonostante abbia paura di un uomo che potrebbe farle tutto perché ancora lo ama. Assieme hanno avuto un figlio che abita con lei e il suo nuovo compagno.
Insieme passeggiano per la città lagunare rivivendo i momenti passati insieme e riscoprendo il loro rapporto.

Alla fine del film Enrico dirige un'orchestra che suona il brano intitolato "Anonimo Veneziano" da lui preparato con un gruppo di studenti.
(fonte Wikipedia)

[color=green]:::->Scheda tecnica del DivX<-:::[/color]

General
Format: AVI
Format/Info: Audio Video Interleave
File size: 700 MiB
Duration: 1h 26mn
Overall bit rate: 1 131 Kbps
Writing application: VirtualDubMod 1.5.4.1 (build 2178/release)
Writing library: VirtualDubMod build 2178/release

Video
Format: MPEG-4 Visual
Format profile: Streaming [email protected]
Format settings, BVOP: Yes
Format settings, QPel: No
Format settings, GMC: No warppoints
Format settings, Matrix: Default (H.263)
Muxing mode: Packed bitstream
Codec ID: XVID
Codec ID/Hint: XviD
Duration: 1h 26mn
Bit rate: 993 Kbps
Width: 544 pixels
Height: 416 pixels
Display aspect ratio: 4/3
Frame rate: 25.000 fps
Resolution: 24 bits
Colorimetry: 4:2:0
Scan type: Progressive
Bits/(Pixel*Frame): 0.176
Stream size: 615 MiB (88%)
Writing library: XviD 0039 build=2005.09.25 (UTC 2005-09-25)

Audio #1
Format: MPEG Audio
Format version: Version 1
Format profile: Layer 3
Codec ID: 55
Codec ID/Hint: MP3
Duration: 1h 26mn
Bit rate mode: Constant
Bit rate: 64.0 Kbps
Channel(s): 1 channel
Sampling rate: 48.0 KHz
Resolution: 16 bits
Stream size: 39.6 MiB (6%)
Alignment: Aligned on interleaves
Interleave, duration: 80 ms (2.00 video frames)
Interleave, preload duration: 504 ms
Writing library: LAME3.96r
Encoding settings: -m m -V 4 -q 2 -lowpass 16.5 -b 64
Language: Español

Audio #2
Format: MPEG Audio
Format version: Version 1
Format profile: Layer 3
Codec ID: 55
Codec ID/Hint: MP3
Duration: 1h 26mn
Bit rate mode: Constant
Bit rate: 64.0 Kbps
Channel(s): 1 channel
Sampling rate: 48.0 KHz
Resolution: 16 bits
Stream size: 39.6 MiB (6%)
Alignment: Aligned on interleaves
Interleave, duration: 80 ms (2.00 video frames)
Interleave, preload duration: 504 ms
Writing library: LAME3.96r
Encoding settings: -m m -V 4 -q 2 -lowpass 16.5 -b 64
Language: Italiano
(fonte MediaInfo)

related torrents

Torrent name

health leech seeds Size
 


comments (0)

Main Menu