Documentary

Adventures In Cannabis Hemp 2008 DVDRip XviD DOMiNO[

  • Download 5x Faster
  • Download torrent
  • Direct Download
  • Rate this torrent +  |  -
Adventures In Cannabis Hemp 2008 DVDRip XviD DOMiNO[

Free and Direct Download with Usenet.nl 300GB+ free


Torrent info

Name:Adventures In Cannabis Hemp 2008 DVDRip XviD DOMiNO[

Total Size: 696.58 MB

Magnet: Magnet Link

Seeds: 0

Leechers: 0

Stream: Watch Online @ Movie4u

Last Updated: 2010-10-06 10:11:38 (Update Now)

Torrent added: 2009-09-18 07:40:03





Torrent Files List


Adventures in Cannabis Hemp.sfv (Size: 696.58 MB) (Files: 51)

 Adventures in Cannabis Hemp.sfv

6.58 KB

 Adventures in Cannabis Hemp.nfo

1.77 KB

 Adventures in Cannabis Hemp.part48.rar

14.31 MB

 Adventures in Cannabis Hemp.part49.rar

9.93 MB

 Adventures in Cannabis Hemp.part46.rar

14.31 MB

 Adventures in Cannabis Hemp.part47.rar

14.31 MB

 Adventures in Cannabis Hemp.part45.rar

14.31 MB

 Adventures in Cannabis Hemp.part43.rar

14.31 MB

 Adventures in Cannabis Hemp.part42.rar

14.31 MB

 Adventures in Cannabis Hemp.part40.rar

14.31 MB

 Adventures in Cannabis Hemp.part41.rar

14.31 MB

 Adventures in Cannabis Hemp.part39.rar

14.31 MB

 Adventures in Cannabis Hemp.part44.rar

14.31 MB

 Adventures in Cannabis Hemp.part36.rar

14.31 MB

 Adventures in Cannabis Hemp.part37.rar

14.31 MB

 Adventures in Cannabis Hemp.part34.rar

14.31 MB

 Adventures in Cannabis Hemp.part35.rar

14.31 MB

 Adventures in Cannabis Hemp.part32.rar

14.31 MB

 Adventures in Cannabis Hemp.part33.rar

14.31 MB

 Adventures in Cannabis Hemp.part31.rar

14.31 MB

 Adventures in Cannabis Hemp.part30.rar

14.31 MB

 Adventures in Cannabis Hemp.part29.rar

14.31 MB

 Adventures in Cannabis Hemp.part28.rar

14.31 MB

 Adventures in Cannabis Hemp.part26.rar

14.31 MB

 Adventures in Cannabis Hemp.part27.rar

14.31 MB

 Adventures in Cannabis Hemp.part38.rar

14.31 MB

 Adventures in Cannabis Hemp.part23.rar

14.31 MB

 Adventures in Cannabis Hemp.part24.rar

14.31 MB

 Adventures in Cannabis Hemp.part22.rar

14.31 MB

 Adventures in Cannabis Hemp.part21.rar

14.31 MB

 Adventures in Cannabis Hemp.part20.rar

14.31 MB

 Adventures in Cannabis Hemp.part19.rar

14.31 MB

 Adventures in Cannabis Hemp.part18.rar

14.31 MB

 Adventures in Cannabis Hemp.part17.rar

14.31 MB

 Adventures in Cannabis Hemp.part16.rar

14.31 MB

 Adventures in Cannabis Hemp.part14.rar

14.31 MB

 Adventures in Cannabis Hemp.part15.rar

14.31 MB

 Adventures in Cannabis Hemp.part13.rar

14.31 MB

 Adventures in Cannabis Hemp.part12.rar

14.31 MB

 Adventures in Cannabis Hemp.part11.rar

14.31 MB

 Adventures in Cannabis Hemp.part10.rar

14.31 MB

 Adventures in Cannabis Hemp.part09.rar

14.31 MB

 Adventures in Cannabis Hemp.part08.rar

14.31 MB

 Adventures in Cannabis Hemp.part07.rar

14.31 MB

 Adventures in Cannabis Hemp.part06.rar

14.31 MB

 Adventures in Cannabis Hemp.part05.rar

14.31 MB

 Adventures in Cannabis Hemp.part04.rar

14.31 MB

 Adventures in Cannabis Hemp.part02.rar

14.31 MB

 Adventures in Cannabis Hemp.part03.rar

14.31 MB

 Adventures in Cannabis Hemp.part25.rar

14.31 MB

 Adventures in Cannabis Hemp.part01.rar

14.31 MB
 

Announce URL: http://tracker.ilovetorrents.com/announce.php

Torrent description


Adventures in Cannabis Hemp
General

Format : AVI
Format/Info : Audio Video Interleave
File size : 697 MiB
Duration : 55mn 38s
Overall bit rate : 1 750 Kbps

Video
Format : MPEG-4 Visual
Format profile : Streaming [email protected]
Format settings, BVOP : Yes
Format settings, QPel : No
Format settings, GMC : No warppoints
Format settings, Matrix : Default
Codec ID : XVID
Codec ID/Hint : XviD
Duration : 55mn 38s
Bit rate : 1 608 Kbps
Width : 560 pixels
Height : 416 pixels
Display aspect ratio : 4/3
Frame rate : 29.970 fps
Resolution : 24 bits
Colorimetry : 4:2:0
Scan type : Progressive
Bits/(Pixel*Frame) : 0.230
Stream size : 640 MiB (92%)
Writing library : XviD 1.1.2 (UTC 2006-11-01)
Audio
Format : MPEG Audio
Format version : Version 1
Format profile : Layer 3
Codec ID : 55
Codec ID/Hint : MP3
Duration : 55mn 38s
Bit rate mode : Variable
Bit rate : 128 Kbps
Channel(s) : 2 channels
Sampling rate : 48.0 KHz
Resolution : 16 bits
Stream size : 51.0 MiB (7%)
Alignment : Aligned on interleaves
Interleave, duration : 24 ms (0.72 video frame)
Interleave, preload duration : 143 ms
Writing library : LAME3.90.
Encoding settings : ABR





See Amsterdam's famous coffeeshops, where Cannabis and Hashish are sold.

Visit Amsterdam's, Hash, Hemp, and Marijuana museum. Get an exclusive tour of

the Cannabis College.



Category Special Interest DVDs, Documentary Movies, Sports/Recreation Videos,

Travel, Drugs




http://www.cduniverse.com/productinfo.asp?pid=7726361

related torrents

Torrent name

health leech seeds Size
 

comments (0)

Main Menu