Thriller

Basic Instinct 2[2006]DVDrip[Eng]AC3[5 1] Atlas47

  • Download 5x Faster
  • Download torrent
  • Direct Download
  • Rate this torrent +  |  -

Torrent info

Name:Basic Instinct 2[2006]DVDrip[Eng]AC3[5 1] Atlas47

Total Size: 1.36 GB

Magnet: Magnet Link

Seeds: 5

Leechers: 1

Stream: Watch Full Movie @ Movie4u

Last Updated: 0000-00-00 00:00:00 (Update Now)

Torrent added: 2009-09-18 06:58:18



VPN For Torrents

Torrent Files List


Basic Instinct 2.sub (Size: 1.36 GB) (Files: 5)

 Basic Instinct 2.sub

4.13 MB

 Basic Instinct 2.nfo

10.14 KB

 Basic Instinct 2.idx

43.93 KB

 Basic Instinct 2.avi

1.36 GB

 Covers

  Basic Instinct 2.jpg

1.61 MB
 

Announce URL: http://tracker.publicbt.com/announce

Torrent description


±±±±±±±±±±±±±±±±±±±±±±±±±±±±±±>>www.tornster.com<<±±±±±±±±±±±±±±±±±±±±±±±±±±±±±±
± ±
± INFO: ±
± ±
± General ±
± Complete name : Basic Instinct 2 ±
± Genre : Crime / Mystery / Thriller ±
± Format : AVI ±
± Format/Info : Audio Video Interleave ±
± File size : 1.36 GiB ±
± Duration : 1h 51mn ±
± Overall bit rate : 1 749 Kbps ±
± Writing application : Lavf52.17.0 ±
± Writing library : ±
± ±
± Video ±
± Format : MPEG-4 Visual ±
± Format settings, BVOP : No ±
± Format settings, QPel : No ±
± Format settings, GMC : No warppoints ±
± Format settings, Matrix : Default ±
± Codec ID : XVID ±
± Codec ID/Hint : XviD ±
± Duration : 1h 51mn ±
± Bit rate : 1 290 Kbps ±
± Width : 720 pixels ±
± Height : 300 pixels ±
± Display aspect ratio : 2.400 ±
± Frame rate : 25.000 fps ±
± Resolution : 24 bits ±
± Colorimetry : 4:2:0 ±
± Scan type : Progressive ±
± Bits/(Pixel*Frame) : 0.239 ±
± Stream size : 1.00 GiB (74%) ±
± Writing library : XviD 1.1.2 (UTC 2006-11-01) ±
± ±
± Audio ±
± Format : AC-3 ±
± Format/Info : Audio Coding 3 ±
± Codec ID : 2000 ±
± Duration : 1h 51mn ±
± Bit rate mode : Constant ±
± Bit rate : 448 Kbps ±
± Channel(s) : 6 channels ±
± Channel positions : Front: L C R, Surround: L R, LFE ±
± Sampling rate : 48.0 KHz ±
± Stream size : 356 MiB (26%) ±
± Alignment : Aligned on interleaves ±
± Interleave, duration : 32 ms (0.80 video frame) ±
± Interleave, preload duration : 32 ms ±
± Language : English ±
± Subtitles : English ±
± ±
± IMDb Rating : 3.8/10 ±
± IMDb URL : http://www.imdb.com/title/tt0430912/ ±
± ±
±°°°°°°°°°°°°°°°°°°°°°°°°°°°°°°°°°°°°°°°°°°°°°°°°°°°°°°°°°°°°°°°°°°°°°°°°°°°°°°±
± ±
± London psychiatrist Dr. Michael Glass is charismatic, highly respected and ±
± at the top of his game. When Detective Superintendent Washburn asks Glass to ±
± analyse a beautiful woman who has been linked to the mysterious death of a ±
± famous sports star, his entire world is turned upside down. The woman is ±
± Catherine Tramell, best selling American crime novelist whose fiction has a ±
± habit of turning into reality. The magnetism between the two is immediate ±
± and Glass is captivated by Catherine both mentally and physically. Quickly ±
± sucked into her web of lies, seduction and intrigue, Glass' own basic ±
± instincts are uncovered as professional boundaries are blured. ±
± ±
± ±
±°°°°°°°°°°°°°°°°°°°°°°°°°°°°°°°°°°°°°°°°°°°°°°°°°°°°°°°°°°°°°°°°°°°°°°°°°°°°°°±
± ±
± CAST: ±
± ±
± Sharon Stone...............Catherine Tramell ±
± David Morrissey............Michael Glass ±
± David Thewlis..............Roy Washburn ±
± Terence Harvey.............Henry Rose ±
± Charlotte Rampling.........Milena Gardosh ±
± Indira Varma...............Denise Glass ±
± Neil Maskell...............Detective Frguson ±
± ±
±°°°°°°°°°°°°°°°°°°°°°°°°°°°°°°°°°°°°°°°°°°°°°°°°°°°°°°°°°°°°°°°°°°°°°°°°°°°°°°±
± ±
± Please remember to seed ±
± ±
± Standalone Enabled ±
± ±
± www.tornster.com ±
± ±
±±±±±±±±±±±±±±±±±±±±±±±±±±±±±±±±±±±±±±±±±±±±±±±±±±±±±±±±±±±±±±±±±±±±±±±±±±±±±±±±

related torrents

Torrent name

health leech seeds Size
 


comments (0)

Main Menu

 

script data-cfasync="false" src="//d2ghscazvn398x.cloudfront.net/?cshgd=690275">