TV - Other

16 LONDYNCZYCY avi

  • Download 5x Faster
  • Download torrent
  • Direct Download
  • Rate this torrent +  |  -
16 LONDYNCZYCY avi

Anonymous and Free Direct Download 300GB+


Torrent info

Name:16 LONDYNCZYCY avi

Total Size: 350.21 MB

Magnet: Magnet Link

Seeds: 10

Leechers: 2

Stream: Watch Online @ Movie4u

Last Updated: 2010-11-27 10:40:52 (Update Now)

Torrent added: 2009-09-18 02:34:31



VPN For Torrents

Torrent Files List


16.LONDYNCZYCY.avi (Size: 350.21 MB) (Files: 1)

 16.LONDYNCZYCY.avi

350.21 MB
 

Announce URL: http://tracker.prq.to/announce

Torrent description

16.LONDYNCZYCY.avi S02E03
Format : AVI
Format/Info : Audio Video Interleave
File size : 350 MiB
Duration : 42mn 51s
Overall bit rate : 1 143 Kbps

Video
ID : 0
Format : MPEG-4 Visual
Format profile : [email protected]
Format settings, BVOP : No
Format settings, QPel : No
Format settings, GMC : No warppoints
Format settings, Matrix : Default (H.263)
Codec ID : XVID
Codec ID/Hint : XviD
Duration : 42mn 51s
Bit rate : 940 Kbps
Width : 720 pixels
Height : 576 pixels
Display aspect ratio : 16/9
Frame rate : 25.000 fps
Standard : PAL
Resolution : 24 bits
Colorimetry : 4:2:0
Scan type : Progressive
Bits/(Pixel*Frame) : 0.091
Stream size : 288 MiB (82%)
Writing library : XviD 1.1.2 (UTC 2006-11-01)

Audio
ID : 1
Format : AC-3
Format/Info : Audio Coding 3
Codec ID : 2000
Duration : 42mn 51s
Bit rate mode : Constant
Bit rate : 192 Kbps
Channel(s) : 2 channels
Channel positions : L R
Sampling rate : 48.0 KHz
Stream size : 58.9 MiB (17%)
Alignment : Aligned on interleaves
Interleave, duration : 32 ms (0.80 video frame)
Interleave, preload duration : 544 ms

related torrents

Torrent name

health leech seeds Size

14 LONDYNCZYCY avi

4 19 349.83 MB 0

15 LONDYNCZYCY avi

10 27 350.06 MB 0

17 LONDYNCZYCY avi

27 35 350.11 MB 0

18 LONDYNCZYCY avi

1 9 349.87 MB 0
 


comments (0)

Main Menu